  0
SECTION
  2
HEADER
  9
$ACADVER
  1
AC1027
  9
$ACADMAINTVER
 70
     8
  9
$DWGCODEPAGE
  3
ANSI_932
  9
$LASTSAVEDBY
  1
SK_1F_mouse_201604
  9
$REQUIREDVERSIONS
160
                 0
  9
$INSBASE
 10
0.0
 20
0.0
 30
0.0
  9
$EXTMIN
 10
11610.0026661325
 20
8216.5935206606
 30
0.0
  9
$EXTMAX
 10
11777.1847461325
 20
8448.280398213453
 30
0.0
  9
$LIMMIN
 10
0.0
 20
0.0
  9
$LIMMAX
 10
297.0
 20
210.0
  9
$ORTHOMODE
 70
     0
  9
$REGENMODE
 70
     1
  9
$FILLMODE
 70
     1
  9
$QTEXTMODE
 70
     0
  9
$MIRRTEXT
 70
     1
  9
$LTSCALE
 40
1.0
  9
$ATTMODE
 70
     1
  9
$TEXTSIZE
 40
0.0
  9
$TRACEWID
 40
0.05
  9
$TEXTSTYLE
  7
STANDARD
  9
$CLAYER
  8
寸法
  9
$CELTYPE
  6
CONTINUOUS
  9
$CECOLOR
 62
   256
  9
$CELTSCALE
 40
1.0
  9
$DISPSILH
 70
     0
  9
$DIMSCALE
 40
1.0
  9
$DIMASZ
 40
15.0
  9
$DIMEXO
 40
0.0625
  9
$DIMDLI
 40
0.38
  9
$DIMRND
 40
0.0
  9
$DIMDLE
 40
0.0
  9
$DIMEXE
 40
0.18
  9
$DIMTP
 40
0.0
  9
$DIMTM
 40
0.0
  9
$DIMTXT
 40
10.0
  9
$DIMCEN
 40
0.09
  9
$DIMTSZ
 40
0.0
  9
$DIMTOL
 70
     0
  9
$DIMLIM
 70
     0
  9
$DIMTIH
 70
     1
  9
$DIMTOH
 70
     1
  9
$DIMSE1
 70
     0
  9
$DIMSE2
 70
     0
  9
$DIMTAD
 70
     0
  9
$DIMZIN
 70
     0
  9
$DIMBLK
  1
Open30
  9
$DIMASO
 70
     1
  9
$DIMSHO
 70
     1
  9
$DIMPOST
  1

  9
$DIMAPOST
  1

  9
$DIMALT
 70
     0
  9
$DIMALTD
 70
     2
  9
$DIMALTF
 40
25.4
  9
$DIMLFAC
 40
1.0
  9
$DIMTOFL
 70
     0
  9
$DIMTVP
 40
0.0
  9
$DIMTIX
 70
     0
  9
$DIMSOXD
 70
     0
  9
$DIMSAH
 70
     0
  9
$DIMBLK1
  1

  9
$DIMBLK2
  1

  9
$DIMSTYLE
  2
コピー ～ STANDARD
  9
$DIMCLRD
 70
   256
  9
$DIMCLRE
 70
   256
  9
$DIMCLRT
 70
     7
  9
$DIMTFAC
 40
1.0
  9
$DIMGAP
 40
0.09
  9
$DIMJUST
 70
     0
  9
$DIMSD1
 70
     0
  9
$DIMSD2
 70
     0
  9
$DIMTOLJ
 70
     1
  9
$DIMTZIN
 70
     0
  9
$DIMALTZ
 70
     0
  9
$DIMALTTZ
 70
     0
  9
$DIMUPT
 70
     0
  9
$DIMDEC
 70
     0
  9
$DIMTDEC
 70
     0
  9
$DIMALTU
 70
     2
  9
$DIMALTTD
 70
     2
  9
$DIMTXSTY
  7
STANDARD
  9
$DIMAUNIT
 70
     0
  9
$DIMADEC
 70
     0
  9
$DIMALTRND
 40
0.0
  9
$DIMAZIN
 70
     0
  9
$DIMDSEP
 70
    46
  9
$DIMATFIT
 70
     3
  9
$DIMFRAC
 70
     0
  9
$DIMLDRBLK
  1
Open30
  9
$DIMLUNIT
 70
     2
  9
$DIMLWD
 70
    -1
  9
$DIMLWE
 70
    -2
  9
$DIMTMOVE
 70
     0
  9
$DIMFXL
 40
1.0
  9
$DIMFXLON
 70
     0
  9
$DIMJOGANG
 40
0.7853981633974483
  9
$DIMTFILL
 70
     0
  9
$DIMTFILLCLR
 70
     0
  9
$DIMARCSYM
 70
     0
  9
$DIMLTYPE
  6
BYLAYER
  9
$DIMLTEX1
  6

  9
$DIMLTEX2
  6

  9
$DIMTXTDIRECTION
 70
     0
  9
$LUNITS
 70
     2
  9
$LUPREC
 70
     4
  9
$SKETCHINC
 40
0.1
  9
$FILLETRAD
 40
0.0
  9
$AUNITS
 70
     0
  9
$AUPREC
 70
     0
  9
$MENU
  1
acad
  9
$ELEVATION
 40
0.0
  9
$PELEVATION
 40
0.0
  9
$THICKNESS
 40
0.0
  9
$LIMCHECK
 70
     0
  9
$CHAMFERA
 40
0.0
  9
$CHAMFERB
 40
0.0
  9
$CHAMFERC
 40
0.0
  9
$CHAMFERD
 40
0.0
  9
$SKPOLY
 70
     0
  9
$TDCREATE
 40
2305824.175156401
  9
$TDUCREATE
 40
2305823.800156401
  9
$TDUPDATE
 40
2457994.560545602
  9
$TDUUPDATE
 40
2457994.185545602
  9
$TDINDWG
 40
0.0071830093
  9
$TDUSRTIMER
 40
0.0071830093
  9
$USRTIMER
 70
     1
  9
$ANGBASE
 50
0.0
  9
$ANGDIR
 70
     0
  9
$PDMODE
 70
     0
  9
$PDSIZE
 40
0.0
  9
$PLINEWID
 40
0.0
  9
$SPLFRAME
 70
     0
  9
$SPLINETYPE
 70
     6
  9
$SPLINESEGS
 70
     8
  9
$HANDSEED
  5
24B
  9
$SURFTAB1
 70
     6
  9
$SURFTAB2
 70
     6
  9
$SURFTYPE
 70
     6
  9
$SURFU
 70
     6
  9
$SURFV
 70
     6
  9
$UCSBASE
  2

  9
$UCSNAME
  2

  9
$UCSORG
 10
0.0
 20
0.0
 30
0.0
  9
$UCSXDIR
 10
1.0
 20
0.0
 30
0.0
  9
$UCSYDIR
 10
0.0
 20
1.0
 30
0.0
  9
$UCSORTHOREF
  2

  9
$UCSORTHOVIEW
 70
     0
  9
$UCSORGTOP
 10
0.0
 20
0.0
 30
0.0
  9
$UCSORGBOTTOM
 10
0.0
 20
0.0
 30
0.0
  9
$UCSORGLEFT
 10
0.0
 20
0.0
 30
0.0
  9
$UCSORGRIGHT
 10
0.0
 20
0.0
 30
0.0
  9
$UCSORGFRONT
 10
0.0
 20
0.0
 30
0.0
  9
$UCSORGBACK
 10
0.0
 20
0.0
 30
0.0
  9
$PUCSBASE
  2

  9
$PUCSNAME
  2

  9
$PUCSORG
 10
0.0
 20
0.0
 30
0.0
  9
$PUCSXDIR
 10
1.0
 20
0.0
 30
0.0
  9
$PUCSYDIR
 10
0.0
 20
1.0
 30
0.0
  9
$PUCSORTHOREF
  2

  9
$PUCSORTHOVIEW
 70
     0
  9
$PUCSORGTOP
 10
0.0
 20
0.0
 30
0.0
  9
$PUCSORGBOTTOM
 10
0.0
 20
0.0
 30
0.0
  9
$PUCSORGLEFT
 10
0.0
 20
0.0
 30
0.0
  9
$PUCSORGRIGHT
 10
0.0
 20
0.0
 30
0.0
  9
$PUCSORGFRONT
 10
0.0
 20
0.0
 30
0.0
  9
$PUCSORGBACK
 10
0.0
 20
0.0
 30
0.0
  9
$USERI1
 70
     0
  9
$USERI2
 70
     0
  9
$USERI3
 70
     0
  9
$USERI4
 70
     0
  9
$USERI5
 70
     0
  9
$USERR1
 40
0.0
  9
$USERR2
 40
0.0
  9
$USERR3
 40
0.0
  9
$USERR4
 40
0.0
  9
$USERR5
 40
0.0
  9
$WORLDVIEW
 70
     1
  9
$SHADEDGE
 70
     3
  9
$SHADEDIF
 70
    70
  9
$TILEMODE
 70
     1
  9
$MAXACTVP
 70
    16
  9
$PINSBASE
 10
0.0
 20
0.0
 30
0.0
  9
$PLIMCHECK
 70
     0
  9
$PEXTMIN
 10
1.129416638471948
 20
0.7870833686017616
 30
0.0
  9
$PEXTMAX
 10
10.16474974624754
 20
7.083750317415853
 30
0.0
  9
$PLIMMIN
 10
-0.1979161059762549
 20
-0.1979166503966324
  9
$PLIMMAX
 10
11.4920836921752
 20
8.068749791993869
  9
$UNITMODE
 70
     0
  9
$VISRETAIN
 70
     0
  9
$PLINEGEN
 70
     1
  9
$PSLTSCALE
 70
     0
  9
$TREEDEPTH
 70
  3020
  9
$CMLSTYLE
  2
STANDARD
  9
$CMLJUST
 70
     0
  9
$CMLSCALE
 40
1.0
  9
$PROXYGRAPHICS
 70
     1
  9
$MEASUREMENT
 70
     0
  9
$CELWEIGHT
370
    -1
  9
$ENDCAPS
280
     0
  9
$JOINSTYLE
280
     0
  9
$LWDISPLAY
290
     0
  9
$INSUNITS
 70
     0
  9
$HYPERLINKBASE
  1

  9
$STYLESHEET
  1

  9
$XEDIT
290
     1
  9
$CEPSNTYPE
380
     0
  9
$PSTYLEMODE
290
     1
  9
$FINGERPRINTGUID
  2
{4A7BC5EA-BB3F-4743-9A78-06DC53792D20}
  9
$VERSIONGUID
  2
{839F7FDB-C6D1-4E2A-81A7-DB60223C87F6}
  9
$EXTNAMES
290
     1
  9
$PSVPSCALE
 40
0.0
  9
$OLESTARTUP
290
     0
  9
$SORTENTS
280
   127
  9
$INDEXCTL
280
     0
  9
$HIDETEXT
280
     0
  9
$XCLIPFRAME
280
     2
  9
$HALOGAP
280
     0
  9
$OBSCOLOR
 70
   257
  9
$OBSLTYPE
280
     0
  9
$INTERSECTIONDISPLAY
280
     0
  9
$INTERSECTIONCOLOR
 70
   257
  9
$DIMASSOC
280
     1
  9
$PROJECTNAME
  1

  9
$CAMERADISPLAY
290
     0
  9
$LENSLENGTH
 40
50.0
  9
$CAMERAHEIGHT
 40
0.0
  9
$STEPSPERSEC
 40
2.0
  9
$STEPSIZE
 40
6.0
  9
$3DDWFPREC
 40
2.0
  9
$PSOLWIDTH
 40
0.25
  9
$PSOLHEIGHT
 40
4.0
  9
$LOFTANG1
 40
1.570796326794896
  9
$LOFTANG2
 40
1.570796326794896
  9
$LOFTMAG1
 40
0.0
  9
$LOFTMAG2
 40
0.0
  9
$LOFTPARAM
 70
     7
  9
$LOFTNORMALS
280
     1
  9
$LATITUDE
 40
37.795
  9
$LONGITUDE
 40
-122.394
  9
$NORTHDIRECTION
 40
0.0
  9
$TIMEZONE
 70
 -8000
  9
$LIGHTGLYPHDISPLAY
280
     1
  9
$TILEMODELIGHTSYNCH
280
     1
  9
$CMATERIAL
347
120
  9
$SOLIDHIST
280
     0
  9
$SHOWHIST
280
     1
  9
$DWFFRAME
280
     2
  9
$DGNFRAME
280
     0
  9
$REALWORLDSCALE
290
     1
  9
$INTERFERECOLOR
 62
     1
  9
$INTERFEREOBJVS
345
142
  9
$INTERFEREVPVS
346
13F
  9
$CSHADOW
280
     0
  9
$SHADOWPLANELOCATION
 40
0.0
  0
ENDSEC
  0
SECTION
  2
CLASSES
  0
CLASS
  1
IMAGE
  2
AcDbRasterImage
  3
ISM
 90
     2175
 91
        0
280
     0
281
     1
  0
CLASS
  1
DICTIONARYVAR
  2
AcDbDictionaryVar
  3
ObjectDBX Classes
 90
        0
 91
        9
280
     0
281
     0
  0
CLASS
  1
RASTERVARIABLES
  2
AcDbRasterVariables
  3
ISM
 90
        0
 91
        0
280
     0
281
     0
  0
CLASS
  1
IMAGEDEF
  2
AcDbRasterImageDef
  3
ISM
 90
        0
 91
        0
280
     0
281
     0
  0
CLASS
  1
IMAGEDEF_REACTOR
  2
AcDbRasterImageDefReactor
  3
ISM
 90
        1
 91
        0
280
     0
281
     0
  0
CLASS
  1
IDBUFFER
  2
AcDbIdBuffer
  3
ObjectDBX Classes
 90
        0
 91
        0
280
     0
281
     0
  0
CLASS
  1
SPATIAL_FILTER
  2
AcDbSpatialFilter
  3
ObjectDBX Classes
 90
        0
 91
        0
280
     0
281
     0
  0
CLASS
  1
SORTENTSTABLE
  2
AcDbSortentsTable
  3
ObjectDBX Classes
 90
        0
 91
        0
280
     0
281
     0
  0
CLASS
  1
LAYER_INDEX
  2
AcDbLayerIndex
  3
ObjectDBX Classes
 90
        0
 91
        0
280
     0
281
     0
  0
CLASS
  1
SPATIAL_INDEX
  2
AcDbSpatialIndex
  3
ObjectDBX Classes
 90
        0
 91
        0
280
     0
281
     0
  0
CLASS
  1
OBJECT_PTR
  2
CAseDLPNTableRecord
  3
"ASE-LPNTableRecord"
 90
        0
 91
        0
280
     0
281
     0
  0
CLASS
  1
PLOTSETTINGS
  2
AcDbPlotSettings
  3
ObjectDBX Classes
 90
        0
 91
        0
280
     0
281
     0
  0
CLASS
  1
ACDBDICTIONARYWDFLT
  2
AcDbDictionaryWithDefault
  3
ObjectDBX Classes
 90
        0
 91
        1
280
     0
281
     0
  0
CLASS
  1
WIPEOUT
  2
AcDbWipeout
  3
WipeOut|Product Desc: Object Enabler for WipeOut entity | Company: Autodesk, Inc. | WEB Address: www.autodesk.com
 90
     2175
 91
        0
280
     0
281
     1
  0
CLASS
  1
WIPEOUTVARIABLES
  2
AcDbWipeoutVariables
  3
"WipeOut|Product Desc:     WipeOut Dbx Application|Company:          Autodesk, Inc.|WEB Address:      www.autodesk.com"
 90
        0
 91
        0
280
     0
281
     0
  0
CLASS
  1
RTEXT
  2
RText
  3
RText|AutoCAD Express Tool|expresstools@autodesk.com
 90
        0
 91
        0
280
     0
281
     1
  0
CLASS
  1
ARCALIGNEDTEXT
  2
AcDbArcAlignedText
  3
ATEXT|AutoCAD Express Tool|expresstools@autodesk.com
 90
        0
 91
        0
280
     0
281
     1
  0
CLASS
  1
MATERIAL
  2
AcDbMaterial
  3
ObjectDBX Classes
 90
     1153
 91
        3
280
     0
281
     0
  0
CLASS
  1
VISUALSTYLE
  2
AcDbVisualStyle
  3
ObjectDBX Classes
 90
     4095
 91
       24
280
     0
281
     0
  0
CLASS
  1
TABLESTYLE
  2
AcDbTableStyle
  3
ObjectDBX Classes
 90
     4095
 91
        1
280
     0
281
     0
  0
CLASS
  1
SCALE
  2
AcDbScale
  3
ObjectDBX Classes
 90
     1153
 91
       17
280
     0
281
     0
  0
CLASS
  1
MLEADERSTYLE
  2
AcDbMLeaderStyle
  3
ACDB_MLEADERSTYLE_CLASS
 90
     4095
 91
        1
280
     0
281
     0
  0
CLASS
  1
ACDBSECTIONVIEWSTYLE
  2
AcDbSectionViewStyle
  3
ObjectDBX Classes
 90
     1025
 91
        1
280
     0
281
     0
  0
CLASS
  1
ACDBDETAILVIEWSTYLE
  2
AcDbDetailViewStyle
  3
ObjectDBX Classes
 90
     1025
 91
        1
280
     0
281
     0
  0
CLASS
  1
CELLSTYLEMAP
  2
AcDbCellStyleMap
  3
ObjectDBX Classes
 90
     1152
 91
        1
280
     0
281
     0
  0
ENDSEC
  0
SECTION
  2
TABLES
  0
TABLE
  2
VPORT
  5
7
330
0
100
AcDbSymbolTable
 70
     1
  0
VPORT
  5
15
330
7
100
AcDbSymbolTableRecord
100
AcDbViewportTableRecord
  2
*ACTIVE
 70
     0
 10
0.0
 20
0.0
 11
1.0
 21
1.0
 12
11745.011593993
 22
8363.630231991447
 13
0.0
 23
0.0
 14
1.0
 24
1.0
 15
0.0
 25
0.0
 16
0.0
 26
0.0
 36
1.0
 17
0.0
 27
0.0
 37
0.0
 40
389.377396018812
 41
1.695167286245353
 42
50.0
 43
0.0
 44
0.0
 50
0.0
 51
0.0
 71
     0
 72
   100
 73
     1
 74
     1
 75
     0
 76
     0
 77
     0
 78
     0
281
     0
 65
     1
110
0.0
120
0.0
130
0.0
111
1.0
121
0.0
131
0.0
112
0.0
122
1.0
132
0.0
 79
     0
146
0.0
348
13E
 60
     3
 61
     5
292
     1
282
     1
141
0.0
142
0.0
 63
   250
421
  3355443
1001
ACAD_NAV_VCDISPLAY
1070
     3
  0
ENDTAB
  0
TABLE
  2
LTYPE
  5
4
330
0
100
AcDbSymbolTable
 70
     6
  0
LTYPE
  5
11
330
4
100
AcDbSymbolTableRecord
100
AcDbLinetypeTableRecord
  2
BYBLOCK
 70
     0
  3

 72
    65
 73
     0
 40
0.0
  0
LTYPE
  5
12
330
4
100
AcDbSymbolTableRecord
100
AcDbLinetypeTableRecord
  2
BYLAYER
 70
     0
  3

 72
    65
 73
     0
 40
0.0
  0
LTYPE
  5
13
330
4
100
AcDbSymbolTableRecord
100
AcDbLinetypeTableRecord
  2
CONTINUOUS
 70
     0
  3
実線
 72
    65
 73
     0
 40
0.0
  0
LTYPE
  5
1D
330
4
100
AcDbSymbolTableRecord
100
AcDbLinetypeTableRecord
  2
DASHED
 70
     0
  3
破線
 72
    65
 73
     2
 40
3.799999999999999
 49
3.0
 74
     0
 49
-0.8
 74
     0
  0
LTYPE
  5
1E
330
4
100
AcDbSymbolTableRecord
100
AcDbLinetypeTableRecord
  2
DOT
 70
     0
  3
点線
 72
    65
 73
     2
 40
2.0
 49
1.0
 74
     0
 49
-1.0
 74
     0
  0
LTYPE
  5
1F
330
4
100
AcDbSymbolTableRecord
100
AcDbLinetypeTableRecord
  2
DASHDOT
 70
     0
  3
一点鎖線
 72
    65
 73
     4
 40
25.6
 49
20.0
 74
     0
 49
-2.0
 74
     0
 49
1.6
 74
     0
 49
-2.0
 74
     0
  0
LTYPE
  5
20
330
4
100
AcDbSymbolTableRecord
100
AcDbLinetypeTableRecord
  2
DIVIDE
 70
     0
  3
二点鎖線
 72
    65
 73
     6
 40
31.2
 49
20.0
 74
     0
 49
-2.399999999999999
 74
     0
 49
2.0
 74
     0
 49
-2.399999999999999
 74
     0
 49
2.0
 74
     0
 49
-2.399999999999999
 74
     0
  0
LTYPE
  5
169
330
4
100
AcDbSymbolTableRecord
100
AcDbLinetypeTableRecord
  2
PHANTOM2
 70
     0
  3
___ _ _ ___ _ _ ___ _ _ ___ _ _
 72
    65
 73
     6
 40
1.25
 49
0.625
 74
     0
 49
-0.125
 74
     0
 49
0.125
 74
     0
 49
-0.125
 74
     0
 49
0.125
 74
     0
 49
-0.125
 74
     0
  0
ENDTAB
  0
TABLE
  2
LAYER
  5
2
102
{ACAD_XDICTIONARY
360
17E
102
}
330
0
100
AcDbSymbolTable
 70
     4
  0
LAYER
  5
14
102
{ACAD_XDICTIONARY
360
175
102
}
330
2
100
AcDbSymbolTableRecord
100
AcDbLayerTableRecord
  2
0
 70
     0
 62
     7
  6
CONTINUOUS
370
    -3
390
11E
347
130
348
0
  0
LAYER
  5
25
102
{ACAD_XDICTIONARY
360
177
102
}
330
2
100
AcDbSymbolTableRecord
100
AcDbLayerTableRecord
  2
製肘
 70
     0
 62
     4
  6
CONTINUOUS
370
    -3
390
11E
347
130
348
0
  0
LAYER
  5
26
102
{ACAD_XDICTIONARY
360
179
102
}
330
2
100
AcDbSymbolTableRecord
100
AcDbLayerTableRecord
  2
寸法
 70
     0
 62
     1
  6
CONTINUOUS
370
    -3
390
11E
347
130
348
0
  0
LAYER
  5
1EE
330
2
100
AcDbSymbolTableRecord
100
AcDbLayerTableRecord
  2
Defpoints
 70
     0
 62
     7
  6
CONTINUOUS
290
     0
370
    -3
390
11E
347
130
348
0
  0
ENDTAB
  0
TABLE
  2
STYLE
  5
3
330
0
100
AcDbSymbolTable
 70
     5
  0
STYLE
  5
17
330
3
100
AcDbSymbolTableRecord
100
AcDbTextStyleTableRecord
  2
STANDARD
 70
     0
 40
0.0
 41
1.0
 50
0.0
 71
     0
 42
0.0
  3
monotxt
  4

  0
STYLE
  5
21
330
3
100
AcDbSymbolTableRecord
100
AcDbTextStyleTableRecord
  2
EXCADSTD
 70
     0
 40
0.0
 41
1.0
 50
0.0
 71
     0
 42
0.2
  3
monotxt
  4
extfont
  0
STYLE
  5
22
330
3
100
AcDbSymbolTableRecord
100
AcDbTextStyleTableRecord
  2
EXCADVERT
 70
     4
 40
0.0
 41
1.0
 50
0.0
 71
     0
 42
0.286885
  3
monotxt
  4
extfont
  0
STYLE
  5
23
330
3
100
AcDbSymbolTableRecord
100
AcDbTextStyleTableRecord
  2
EXCADSTD2
 70
     0
 40
0.0
 41
1.0
 50
0.0
 71
     0
 42
0.2
  3
monotxt
  4
extfont
  0
STYLE
  5
24
330
3
100
AcDbSymbolTableRecord
100
AcDbTextStyleTableRecord
  2
EXCADVERT2
 70
     4
 40
0.0
 41
1.0
 50
0.0
 71
     0
 42
0.286885
  3
monotxt
  4
extfont
  0
ENDTAB
  0
TABLE
  2
VIEW
  5
5
330
0
100
AcDbSymbolTable
 70
     0
  0
ENDTAB
  0
TABLE
  2
UCS
  5
6
330
0
100
AcDbSymbolTable
 70
     0
  0
ENDTAB
  0
TABLE
  2
APPID
  5
8
330
0
100
AcDbSymbolTable
 70
     7
  0
APPID
  5
16
330
8
100
AcDbSymbolTableRecord
100
AcDbRegAppTableRecord
  2
ACAD
 70
     0
  0
APPID
  5
184
330
8
100
AcDbSymbolTableRecord
100
AcDbRegAppTableRecord
  2
ACAD_NAV_VCDISPLAY
 70
     0
  0
APPID
  5
1D5
330
8
100
AcDbSymbolTableRecord
100
AcDbRegAppTableRecord
  2
ACAD_EXEMPT_FROM_CAD_STANDARDS
 70
     0
  0
APPID
  5
1D7
330
8
100
AcDbSymbolTableRecord
100
AcDbRegAppTableRecord
  2
ACAD_DSTYLE_DIMJAG
 70
     0
  0
APPID
  5
1D8
330
8
100
AcDbSymbolTableRecord
100
AcDbRegAppTableRecord
  2
ACAD_DSTYLE_DIMBREAK
 70
     0
  0
APPID
  5
1DF
330
8
100
AcDbSymbolTableRecord
100
AcDbRegAppTableRecord
  2
ACAD_DSTYLE_DIMTALN
 70
     0
  0
APPID
  5
224
330
8
100
AcDbSymbolTableRecord
100
AcDbRegAppTableRecord
  2
ACAD_PSEXT
 70
     0
  0
ENDTAB
  0
TABLE
  2
DIMSTYLE
  5
9
330
0
100
AcDbSymbolTable
 70
     2
100
AcDbDimStyleTable
 71
     2
340
1E0
340
18
  0
DIMSTYLE
105
18
330
9
100
AcDbSymbolTableRecord
100
AcDbDimStyleTableRecord
  2
STANDARD
 70
     0
289
     0
340
17
  0
DIMSTYLE
105
1E0
102
{ACAD_REACTORS
330
1ED
330
1FC
330
20A
102
}
330
9
100
AcDbSymbolTableRecord
100
AcDbDimStyleTableRecord
  2
コピー ～ STANDARD
 70
     0
 41
15.0
140
10.0
176
   256
177
   256
178
     7
271
     0
272
     0
340
17
341
1D9
342
1D9
345
12
371
    -1
1001
ACAD_DSTYLE_DIMBREAK
1070
   391
1040
0.125
1001
ACAD_DSTYLE_DIMJAG
1070
   388
1040
1.5
1001
ACAD_DSTYLE_DIMTALN
1070
   392
1070
     0
  0
ENDTAB
  0
TABLE
  2
BLOCK_RECORD
  5
1
330
0
100
AcDbSymbolTable
 70
    12
  0
BLOCK_RECORD
  5
A
330
1
100
AcDbSymbolTableRecord
100
AcDbBlockTableRecord
  2
*MODEL_SPACE
340
16F
 70
     0
280
     1
281
     0
  0
BLOCK_RECORD
  5
B
330
1
100
AcDbSymbolTableRecord
100
AcDbBlockTableRecord
  2
*PAPER_SPACE
340
170
 70
     0
280
     1
281
     0
  0
BLOCK_RECORD
  5
27
330
1
100
AcDbSymbolTableRecord
100
AcDbBlockTableRecord
  2
_EX_NORM
340
0
 70
     0
280
     1
281
     0
  0
BLOCK_RECORD
  5
28
330
1
100
AcDbSymbolTableRecord
100
AcDbBlockTableRecord
  2
_EX_BNORM
340
0
 70
     0
280
     1
281
     0
  0
BLOCK_RECORD
  5
29
330
1
100
AcDbSymbolTableRecord
100
AcDbBlockTableRecord
  2
_EX_BCIR
340
0
 70
     0
280
     1
281
     0
  0
BLOCK_RECORD
  5
2A
330
1
100
AcDbSymbolTableRecord
100
AcDbBlockTableRecord
  2
_EX_RCIVIL
340
0
 70
     0
280
     1
281
     0
  0
BLOCK_RECORD
  5
2B
330
1
100
AcDbSymbolTableRecord
100
AcDbBlockTableRecord
  2
_EX_SLANT
340
0
 70
     0
280
     1
281
     0
  0
BLOCK_RECORD
  5
2C
330
1
100
AcDbSymbolTableRecord
100
AcDbBlockTableRecord
  2
_EX_NONE
340
0
 70
     0
280
     1
281
     0
  0
BLOCK_RECORD
  5
2D
330
1
100
AcDbSymbolTableRecord
100
AcDbBlockTableRecord
  2
_EX_CIVIL
340
0
 70
     0
280
     1
281
     0
  0
BLOCK_RECORD
  5
2E
330
1
100
AcDbSymbolTableRecord
100
AcDbBlockTableRecord
  2
_EX_WCIR
340
0
 70
     0
280
     1
281
     0
  0
BLOCK_RECORD
  5
1D9
330
1
100
AcDbSymbolTableRecord
100
AcDbBlockTableRecord
  2
_Open30
340
0
102
{BLKREFS
331
1F6
331
1F7
331
204
331
205
331
212
331
213
102
}
 70
     0
280
     1
281
     0
  0
BLOCK_RECORD
  5
1EF
330
1
100
AcDbSymbolTableRecord
100
AcDbBlockTableRecord
  2
*D9
340
0
 70
     0
280
     1
281
     0
  0
BLOCK_RECORD
  5
1FD
330
1
100
AcDbSymbolTableRecord
100
AcDbBlockTableRecord
  2
*D10
340
0
 70
     0
280
     1
281
     0
  0
BLOCK_RECORD
  5
20B
330
1
100
AcDbSymbolTableRecord
100
AcDbBlockTableRecord
  2
*D11
340
0
 70
     0
280
     1
281
     0
  0
ENDTAB
  0
ENDSEC
  0
SECTION
  2
BLOCKS
  0
BLOCK
  5
D
330
A
100
AcDbEntity
  8
0
100
AcDbBlockBegin
  2
*MODEL_SPACE
 70
     0
 10
0.0
 20
0.0
 30
0.0
  3
*MODEL_SPACE
  1

  0
ENDBLK
  5
E
330
A
100
AcDbEntity
  8
0
100
AcDbBlockEnd
  0
BLOCK
  5
F
330
B
100
AcDbEntity
 67
     1
  8
0
100
AcDbBlockBegin
  2
*PAPER_SPACE
 70
     0
 10
0.0
 20
0.0
 30
0.0
  3
*PAPER_SPACE
  1

  0
ENDBLK
  5
10
330
B
100
AcDbEntity
 67
     1
  8
0
100
AcDbBlockEnd
  0
BLOCK
  5
2F
330
27
100
AcDbEntity
  8
0
100
AcDbBlockBegin
  2
_EX_NORM
 70
     0
 10
0.0
 20
0.0
 30
0.0
  3
_EX_NORM
  1

  0
LINE
  5
30
330
27
100
AcDbEntity
  8
0
  6
Continuous
 62
     0
100
AcDbLine
 10
0.0
 20
0.0
 30
0.0
 11
-1.0
 21
0.0
 31
0.0
  0
LINE
  5
31
330
27
100
AcDbEntity
  8
0
  6
Continuous
 62
     0
100
AcDbLine
 10
0.0
 20
0.0
 30
0.0
 11
-0.9607689219999999
 21
0.277350098
 31
0.0
  0
LINE
  5
32
330
27
100
AcDbEntity
  8
0
  6
Continuous
 62
     0
100
AcDbLine
 10
0.0
 20
0.0
 30
0.0
 11
-0.9607689219999999
 21
-0.277350098
 31
0.0
  0
ENDBLK
  5
33
330
27
100
AcDbEntity
  8
0
100
AcDbBlockEnd
  0
BLOCK
  5
34
330
28
100
AcDbEntity
  8
0
100
AcDbBlockBegin
  2
_EX_BNORM
 70
     0
 10
0.0
 20
0.0
 30
0.0
  3
_EX_BNORM
  1

  0
LINE
  5
35
330
28
100
AcDbEntity
  8
0
  6
Continuous
 62
     0
100
AcDbLine
 10
0.0
 20
0.0
 30
0.0
 11
-1.0
 21
0.0
 31
0.0
  0
LINE
  5
36
330
28
100
AcDbEntity
  8
0
  6
Continuous
 62
     0
100
AcDbLine
 10
0.0
 20
0.0
 30
0.0
 11
-0.9607689219999999
 21
0.277350098
 31
0.0
  0
LINE
  5
37
330
28
100
AcDbEntity
  8
0
  6
Continuous
 62
     0
100
AcDbLine
 10
0.0
 20
0.0
 30
0.0
 11
-0.9607689219999999
 21
-0.277350098
 31
0.0
  0
LINE
  5
38
330
28
100
AcDbEntity
  8
0
  6
Continuous
 62
     0
100
AcDbLine
 10
0.0
 20
0.0
 30
0.0
 11
-0.9607689219999999
 21
0.138767504
 31
0.0
  0
LINE
  5
39
330
28
100
AcDbEntity
  8
0
  6
Continuous
 62
     0
100
AcDbLine
 10
0.0
 20
0.0
 30
0.0
 11
-0.9607689219999999
 21
-0.138767504
 31
0.0
  0
LINE
  5
3A
330
28
100
AcDbEntity
  8
0
  6
Continuous
 62
     0
100
AcDbLine
 10
-0.9607689219999999
 20
0.277350098
 30
0.0
 11
-0.9607689219999999
 21
-0.277350098
 31
0.0
  0
ENDBLK
  5
3B
330
28
100
AcDbEntity
  8
0
100
AcDbBlockEnd
  0
BLOCK
  5
3C
330
29
100
AcDbEntity
  8
0
100
AcDbBlockBegin
  2
_EX_BCIR
 70
     0
 10
0.0
 20
0.0
 30
0.0
  3
_EX_BCIR
  1

  0
LINE
  5
3D
330
29
100
AcDbEntity
  8
0
  6
Continuous
 62
     0
100
AcDbLine
 10
0.0
 20
0.0
 30
0.0
 11
-1.0
 21
0.0
 31
0.0
  0
CIRCLE
  5
3E
330
29
100
AcDbEntity
  8
0
  6
Continuous
 62
     0
100
AcDbCircle
 10
0.0
 20
0.0
 30
0.0
 40
0.5
  0
CIRCLE
  5
3F
330
29
100
AcDbEntity
  8
0
  6
Continuous
 62
     0
100
AcDbCircle
 10
0.0
 20
0.0
 30
0.0
 40
0.25
  0
ENDBLK
  5
40
330
29
100
AcDbEntity
  8
0
100
AcDbBlockEnd
  0
BLOCK
  5
41
330
2A
100
AcDbEntity
  8
0
100
AcDbBlockBegin
  2
_EX_RCIVIL
 70
     0
 10
0.0
 20
0.0
 30
0.0
  3
_EX_RCIVIL
  1

  0
LINE
  5
42
330
2A
100
AcDbEntity
  8
0
  6
Continuous
 62
     0
100
AcDbLine
 10
0.0
 20
0.0
 30
0.0
 11
-1.0
 21
0.0
 31
0.0
  0
LINE
  5
43
330
2A
100
AcDbEntity
  8
0
  6
Continuous
 62
     0
100
AcDbLine
 10
-1.0
 20
-0.25
 30
0.0
 11
0.0
 21
-0.25
 31
0.0
  0
LINE
  5
44
330
2A
100
AcDbEntity
  8
0
  6
Continuous
 62
     0
100
AcDbLine
 10
-1.0
 20
-0.125
 30
0.0
 11
0.0
 21
-0.125
 31
0.0
  0
ENDBLK
  5
45
330
2A
100
AcDbEntity
  8
0
100
AcDbBlockEnd
  0
BLOCK
  5
46
330
2B
100
AcDbEntity
  8
0
100
AcDbBlockBegin
  2
_EX_SLANT
 70
     0
 10
0.0
 20
0.0
 30
0.0
  3
_EX_SLANT
  1

  0
LINE
  5
47
330
2B
100
AcDbEntity
  8
0
  6
Continuous
 62
     0
100
AcDbLine
 10
0.0
 20
0.0
 30
0.0
 11
-1.0
 21
0.0
 31
0.0
  0
LINE
  5
48
330
2B
100
AcDbEntity
  8
0
  6
Continuous
 62
     0
100
AcDbLine
 10
0.7071067810000001
 20
0.7071067810000001
 30
0.0
 11
-0.7071067810000001
 21
-0.7071067810000001
 31
0.0
  0
ENDBLK
  5
49
330
2B
100
AcDbEntity
  8
0
100
AcDbBlockEnd
  0
BLOCK
  5
4A
330
2C
100
AcDbEntity
  8
0
100
AcDbBlockBegin
  2
_EX_NONE
 70
     0
 10
0.0
 20
0.0
 30
0.0
  3
_EX_NONE
  1

  0
LINE
  5
4B
330
2C
100
AcDbEntity
  8
0
  6
Continuous
 62
     0
100
AcDbLine
 10
0.0
 20
0.0
 30
0.0
 11
-1.0
 21
0.0
 31
0.0
  0
ENDBLK
  5
4C
330
2C
100
AcDbEntity
  8
0
100
AcDbBlockEnd
  0
BLOCK
  5
4D
330
2D
100
AcDbEntity
  8
0
100
AcDbBlockBegin
  2
_EX_CIVIL
 70
     0
 10
0.0
 20
0.0
 30
0.0
  3
_EX_CIVIL
  1

  0
LINE
  5
4E
330
2D
100
AcDbEntity
  8
0
  6
Continuous
 62
     0
100
AcDbLine
 10
0.0
 20
0.0
 30
0.0
 11
-1.0
 21
0.0
 31
0.0
  0
LINE
  5
4F
330
2D
100
AcDbEntity
  8
0
  6
Continuous
 62
     0
100
AcDbLine
 10
-1.0
 20
0.25
 30
0.0
 11
0.0
 21
0.25
 31
0.0
  0
LINE
  5
50
330
2D
100
AcDbEntity
  8
0
  6
Continuous
 62
     0
100
AcDbLine
 10
-1.0
 20
0.125
 30
0.0
 11
0.0
 21
0.125
 31
0.0
  0
ENDBLK
  5
51
330
2D
100
AcDbEntity
  8
0
100
AcDbBlockEnd
  0
BLOCK
  5
52
330
2E
100
AcDbEntity
  8
0
100
AcDbBlockBegin
  2
_EX_WCIR
 70
     0
 10
0.0
 20
0.0
 30
0.0
  3
_EX_WCIR
  1

  0
LINE
  5
53
330
2E
100
AcDbEntity
  8
0
  6
Continuous
 62
     0
100
AcDbLine
 10
0.0
 20
0.0
 30
0.0
 11
-1.0
 21
0.0
 31
0.0
  0
CIRCLE
  5
54
330
2E
100
AcDbEntity
  8
0
  6
Continuous
 62
     0
100
AcDbCircle
 10
0.0
 20
0.0
 30
0.0
 40
0.5
  0
ENDBLK
  5
55
330
2E
100
AcDbEntity
  8
0
100
AcDbBlockEnd
  0
BLOCK
  5
1DD
330
1D9
100
AcDbEntity
  8
0
100
AcDbBlockBegin
  2
_Open30
 70
     0
 10
0.0
 20
0.0
 30
0.0
  3
_Open30
  1

  0
LINE
  5
1DA
330
1D9
100
AcDbEntity
  8
0
  6
ByBlock
 62
     0
370
    -2
100
AcDbLine
 10
-1.0
 20
0.26794919
 30
0.0
 11
0.0
 21
0.0
 31
0.0
  0
LINE
  5
1DB
330
1D9
100
AcDbEntity
  8
0
  6
ByBlock
 62
     0
370
    -2
100
AcDbLine
 10
0.0
 20
0.0
 30
0.0
 11
-1.0
 21
-0.26794919
 31
0.0
  0
LINE
  5
1DC
330
1D9
100
AcDbEntity
  8
0
  6
ByBlock
 62
     0
370
    -2
100
AcDbLine
 10
0.0
 20
0.0
 30
0.0
 11
-1.0
 21
0.0
 31
0.0
  0
ENDBLK
  5
1DE
330
1D9
100
AcDbEntity
  8
0
100
AcDbBlockEnd
  0
BLOCK
  5
1F0
330
1EF
100
AcDbEntity
  8
0
100
AcDbBlockBegin
  2
*D9
 70
     1
 10
0.0
 20
0.0
 30
0.0
  3
*D9
  1

  0
LINE
  5
1F2
330
1EF
100
AcDbEntity
  8
寸法
  6
Continuous
440
 16777216
370
    -2
100
AcDbLine
 10
11610.1346561325
 20
8331.1878806606
 30
0.0
 11
11610.1346561325
 21
8394.581290317368
 31
0.0
  0
LINE
  5
1F3
330
1EF
100
AcDbEntity
  8
寸法
  6
Continuous
440
 16777216
370
    -2
100
AcDbLine
 10
11707.3806526325
 20
8331.1878806606
 30
0.0
 11
11707.3806526325
 21
8394.581290317368
 31
0.0
  0
LINE
  5
1F4
330
1EF
100
AcDbEntity
  8
寸法
440
 16777216
100
AcDbLine
 10
11625.1346561325
 20
8394.401290317368
 30
0.0
 11
11650.33432104916
 21
8394.401290317368
 31
0.0
  0
LINE
  5
1F5
330
1EF
100
AcDbEntity
  8
寸法
440
 16777216
100
AcDbLine
 10
11692.3806526325
 20
8394.401290317368
 30
0.0
 11
11667.18098771583
 21
8394.401290317368
 31
0.0
  0
INSERT
  5
1F6
330
1EF
100
AcDbEntity
  8
寸法
  6
Continuous
440
 16777216
100
AcDbBlockReference
  2
_Open30
 10
11610.1346561325
 20
8394.401290317368
 30
0.0
 41
15.0
 42
15.0
 43
15.0
 50
180.0
  0
INSERT
  5
1F7
330
1EF
100
AcDbEntity
  8
寸法
  6
Continuous
440
 16777216
100
AcDbBlockReference
  2
_Open30
 10
11707.3806526325
 20
8394.401290317368
 30
0.0
 41
15.0
 42
15.0
 43
15.0
  0
MTEXT
  5
1F8
330
1EF
100
AcDbEntity
  8
寸法
  6
Continuous
 62
     7
440
 16777216
100
AcDbMText
 10
11658.7576543825
 20
8394.401290317368
 30
0.0
 40
10.0
 41
0.0
 46
0.0
 71
     5
 72
     1
  1
\A1;97
 73
     1
 44
1.0
  0
POINT
  5
1F9
330
1EF
100
AcDbEntity
  8
Defpoints
  6
Continuous
 62
     0
440
 16777216
100
AcDbPoint
 10
11610.1346561325
 20
8331.1253806606
 30
0.0
  0
POINT
  5
1FA
330
1EF
100
AcDbEntity
  8
Defpoints
  6
Continuous
 62
     0
440
 16777216
100
AcDbPoint
 10
11707.3806526325
 20
8331.1253806606
 30
0.0
  0
POINT
  5
1FB
330
1EF
100
AcDbEntity
  8
Defpoints
  6
Continuous
 62
     0
440
 16777216
100
AcDbPoint
 10
11707.3806526325
 20
8394.401290317368
 30
0.0
  0
ENDBLK
  5
1F1
330
1EF
100
AcDbEntity
  8
0
100
AcDbBlockEnd
  0
BLOCK
  5
1FE
330
1FD
100
AcDbEntity
  8
0
100
AcDbBlockBegin
  2
*D10
 70
     1
 10
0.0
 20
0.0
 30
0.0
  3
*D10
  1

  0
LINE
  5
200
330
1FD
100
AcDbEntity
  8
寸法
  6
Continuous
440
 16777216
370
    -2
100
AcDbLine
 10
11682.7051731325
 20
8373.9728806606
 30
0.0
 11
11722.87702380613
 21
8373.9728806606
 31
0.0
  0
LINE
  5
201
330
1FD
100
AcDbEntity
  8
寸法
  6
Continuous
440
 16777216
370
    -2
100
AcDbLine
 10
11682.7051731325
 20
8289.262880660599
 30
0.0
 11
11722.87702380613
 21
8289.262880660599
 31
0.0
  0
LINE
  5
202
330
1FD
100
AcDbEntity
  8
寸法
440
 16777216
100
AcDbLine
 10
11722.69702380613
 20
8358.9728806606
 30
0.0
 11
11722.69702380613
 21
8336.707880660599
 31
0.0
  0
LINE
  5
203
330
1FD
100
AcDbEntity
  8
寸法
440
 16777216
100
AcDbLine
 10
11722.69702380613
 20
8304.2628806606
 30
0.0
 11
11722.69702380613
 21
8326.527880660599
 31
0.0
  0
INSERT
  5
204
330
1FD
100
AcDbEntity
  8
寸法
  6
Continuous
440
 16777216
100
AcDbBlockReference
  2
_Open30
 10
11722.69702380613
 20
8373.9728806606
 30
0.0
 41
15.0
 42
15.0
 43
15.0
 50
90.0
  0
INSERT
  5
205
330
1FD
100
AcDbEntity
  8
寸法
  6
Continuous
440
 16777216
100
AcDbBlockReference
  2
_Open30
 10
11722.69702380613
 20
8289.262880660599
 30
0.0
 41
15.0
 42
15.0
 43
15.0
 50
270.0
  0
MTEXT
  5
206
330
1FD
100
AcDbEntity
  8
寸法
  6
Continuous
 62
     7
440
 16777216
100
AcDbMText
 10
11722.69702380613
 20
8331.6178806606
 30
0.0
 40
10.0
 41
0.0
 46
0.0
 71
     5
 72
     1
  1
\A1;85
 73
     1
 44
1.0
  0
POINT
  5
207
330
1FD
100
AcDbEntity
  8
Defpoints
  6
Continuous
 62
     0
440
 16777216
100
AcDbPoint
 10
11682.6426731325
 20
8373.9728806606
 30
0.0
  0
POINT
  5
208
330
1FD
100
AcDbEntity
  8
Defpoints
  6
Continuous
 62
     0
440
 16777216
100
AcDbPoint
 10
11682.6426731325
 20
8289.262880660599
 30
0.0
  0
POINT
  5
209
330
1FD
100
AcDbEntity
  8
Defpoints
  6
Continuous
 62
     0
440
 16777216
100
AcDbPoint
 10
11722.69702380613
 20
8289.262880660599
 30
0.0
  0
ENDBLK
  5
1FF
330
1FD
100
AcDbEntity
  8
0
100
AcDbBlockEnd
  0
BLOCK
  5
20C
330
20B
100
AcDbEntity
  8
0
100
AcDbBlockBegin
  2
*D11
 70
     1
 10
0.0
 20
0.0
 30
0.0
  3
*D11
  1

  0
LINE
  5
20E
330
20B
100
AcDbEntity
  8
寸法
  6
Continuous
440
 16777216
370
    -2
100
AcDbLine
 10
11662.5194696325
 20
8258.392214491944
 30
0.0
 11
11723.05702380613
 21
8258.392214491944
 31
0.0
  0
LINE
  5
20F
330
20B
100
AcDbEntity
  8
寸法
  6
Continuous
440
 16777216
370
    -2
100
AcDbLine
 10
11662.5194696325
 20
8216.5935206606
 30
0.0
 11
11723.05702380613
 21
8216.5935206606
 31
0.0
  0
LINE
  5
210
330
20B
100
AcDbEntity
  8
寸法
440
 16777216
100
AcDbLine
 10
11722.87702380613
 20
8243.392214491944
 30
0.0
 11
11722.87702380613
 21
8242.582867576272
 31
0.0
  0
LINE
  5
211
330
20B
100
AcDbEntity
  8
寸法
440
 16777216
100
AcDbLine
 10
11722.87702380613
 20
8231.593520660601
 30
0.0
 11
11722.87702380613
 21
8232.402867576274
 31
0.0
  0
INSERT
  5
212
330
20B
100
AcDbEntity
  8
寸法
  6
Continuous
440
 16777216
100
AcDbBlockReference
  2
_Open30
 10
11722.87702380613
 20
8258.392214491944
 30
0.0
 41
15.0
 42
15.0
 43
15.0
 50
90.0
  0
INSERT
  5
213
330
20B
100
AcDbEntity
  8
寸法
  6
Continuous
440
 16777216
100
AcDbBlockReference
  2
_Open30
 10
11722.87702380613
 20
8216.5935206606
 30
0.0
 41
15.0
 42
15.0
 43
15.0
 50
270.0
  0
MTEXT
  5
214
330
20B
100
AcDbEntity
  8
寸法
  6
Continuous
 62
     7
440
 16777216
100
AcDbMText
 10
11722.87702380613
 20
8237.492867576275
 30
0.0
 40
10.0
 41
0.0
 46
0.0
 71
     5
 72
     1
  1
\A1;42
 73
     1
 44
1.0
  0
POINT
  5
215
330
20B
100
AcDbEntity
  8
Defpoints
  6
Continuous
 62
     0
440
 16777216
100
AcDbPoint
 10
11662.4569696325
 20
8258.392214491944
 30
0.0
  0
POINT
  5
216
330
20B
100
AcDbEntity
  8
Defpoints
  6
Continuous
 62
     0
440
 16777216
100
AcDbPoint
 10
11662.4569696325
 20
8216.5935206606
 30
0.0
  0
POINT
  5
217
330
20B
100
AcDbEntity
  8
Defpoints
  6
Continuous
 62
     0
440
 16777216
100
AcDbPoint
 10
11722.87702380613
 20
8216.5935206606
 30
0.0
  0
ENDBLK
  5
20D
330
20B
100
AcDbEntity
  8
0
100
AcDbBlockEnd
  0
ENDSEC
  0
SECTION
  2
ENTITIES
  0
ARC
  5
56
330
A
100
AcDbEntity
  8
製肘
  6
Continuous
 62
     4
100
AcDbCircle
 10
11634.8726356325
 20
8372.9878806606
 30
0.0
 40
0.9849999999999999
100
AcDbArc
 50
90.0
 51
149.9999600000114
  0
LINE
  5
57
330
A
100
AcDbEntity
  8
製肘
  6
Continuous
 62
     4
100
AcDbLine
 10
11655.0582406325
 20
8336.843502660601
 30
0.0
 11
11640.5102831325
 21
8362.0412801606
 31
0.0
  0
LINE
  5
58
330
A
100
AcDbEntity
  8
製肘
  6
Continuous
 62
     4
100
AcDbLine
 10
11656.0818526325
 20
8337.434404160601
 30
0.0
 11
11641.5338951325
 21
8362.632280160601
 31
0.0
  0
LINE
  5
59
330
A
100
AcDbEntity
  8
製肘
  6
Continuous
 62
     4
100
AcDbLine
 10
11623.2865731325
 20
8332.2088806606
 30
0.0
 11
11652.3824881325
 21
8332.2088806606
 31
0.0
  0
LINE
  5
5A
330
A
100
AcDbEntity
  8
製肘
  6
Continuous
 62
     4
100
AcDbLine
 10
11623.2865731325
 20
8331.026880660601
 30
0.0
 11
11652.3824881325
 21
8331.026880660601
 31
0.0
  0
LINE
  5
5B
330
A
100
AcDbEntity
  8
製肘
  6
Continuous
 62
     4
100
AcDbLine
 10
11640.5102831325
 20
8301.194481160601
 30
0.0
 11
11655.0582406325
 21
8326.392357160599
 31
0.0
  0
LINE
  5
5C
330
A
100
AcDbEntity
  8
製肘
  6
Continuous
 62
     4
100
AcDbLine
 10
11641.5338951325
 20
8300.603481160598
 30
0.0
 11
11656.0818526325
 21
8325.801357160601
 31
0.0
  0
LINE
  5
5D
330
A
100
AcDbEntity
  8
製肘
  6
Continuous
 62
     4
100
AcDbLine
 10
11675.9814136325
 20
8300.603481160598
 30
0.0
 11
11661.4334561325
 21
8325.801357160601
 31
0.0
  0
LINE
  5
5E
330
A
100
AcDbEntity
  8
製肘
  6
Continuous
 62
     4
100
AcDbLine
 10
11677.0050256325
 20
8301.194481160601
 30
0.0
 11
11662.4570681325
 21
8326.392357160599
 31
0.0
  0
LINE
  5
5F
330
A
100
AcDbEntity
  8
製肘
  6
Continuous
 62
     4
100
AcDbLine
 10
11665.1328206325
 20
8331.026880660601
 30
0.0
 11
11694.2287356325
 21
8331.026880660601
 31
0.0
  0
LINE
  5
60
330
A
100
AcDbEntity
  8
製肘
  6
Continuous
 62
     4
100
AcDbLine
 10
11665.1328206325
 20
8332.2088806606
 30
0.0
 11
11694.2287356325
 21
8332.2088806606
 31
0.0
  0
LINE
  5
61
330
A
100
AcDbEntity
  8
製肘
  6
Continuous
 62
     4
100
AcDbLine
 10
11662.4570681325
 20
8336.843502660601
 30
0.0
 11
11677.0050256325
 21
8362.0412801606
 31
0.0
  0
LINE
  5
62
330
A
100
AcDbEntity
  8
製肘
  6
Continuous
 62
     4
100
AcDbLine
 10
11661.4334561325
 20
8337.434404160601
 30
0.0
 11
11675.9814136325
 21
8362.632280160601
 31
0.0
  0
LINE
  5
63
330
A
100
AcDbEntity
  8
製肘
  6
Continuous
 62
     4
100
AcDbLine
 10
11634.0196256325
 20
8373.4803806606
 30
0.0
 11
11610.1346561325
 21
8332.1103806606
 31
0.0
  0
LINE
  5
64
330
A
100
AcDbEntity
  8
製肘
  6
Continuous
 62
     4
100
AcDbLine
 10
11682.6426731325
 20
8373.9728806606
 30
0.0
 11
11634.8726356325
 21
8373.9728806606
 31
0.0
  0
LINE
  5
65
330
A
100
AcDbEntity
  8
製肘
  6
Continuous
 62
     4
100
AcDbLine
 10
11707.3806526325
 20
8332.1103806606
 30
0.0
 11
11683.4956831325
 21
8373.4803806606
 31
0.0
  0
LINE
  5
66
330
A
100
AcDbEntity
  8
製肘
  6
Continuous
 62
     4
100
AcDbLine
 10
11634.8726356325
 20
8289.262880660601
 30
0.0
 11
11682.6426731325
 21
8289.262880660601
 31
0.0
  0
LINE
  5
67
330
A
100
AcDbEntity
  8
製肘
  6
Continuous
 62
     4
100
AcDbLine
 10
11683.4956831325
 20
8289.755380660601
 30
0.0
 11
11707.3806526325
 21
8331.1253806606
 31
0.0
  0
LINE
  5
68
330
A
100
AcDbEntity
  8
製肘
  6
Continuous
 62
     4
100
AcDbLine
 10
11634.0196256325
 20
8289.755380660601
 30
0.0
 11
11610.1346561325
 21
8331.1253806606
 31
0.0
  0
CIRCLE
  5
69
330
A
100
AcDbEntity
  8
製肘
  6
Continuous
 62
     4
100
AcDbCircle
 10
11658.7576051325
 20
8331.6178806606
 30
0.0
 40
5.220500098499999
  0
ARC
  5
6A
330
A
100
AcDbEntity
  8
製肘
  6
Continuous
 62
     4
100
AcDbCircle
 10
11658.7576051325
 20
8331.6178806606
 30
0.0
 40
6.402500492500002
100
AcDbArc
 50
185.296369999996
 51
234.7035899999914
  0
ARC
  5
6B
330
A
100
AcDbEntity
  8
製肘
  6
Continuous
 62
     4
100
AcDbCircle
 10
11658.7576051325
 20
8331.6178806606
 30
0.0
 40
6.402500492500002
100
AcDbArc
 50
245.2963699999929
 51
294.7036199999937
  0
ARC
  5
6C
330
A
100
AcDbEntity
  8
製肘
  6
Continuous
 62
     4
100
AcDbCircle
 10
11658.7576051325
 20
8331.6178806606
 30
0.0
 40
6.402500492500002
100
AcDbArc
 50
305.2964000000007
 51
354.7036200000118
  0
ARC
  5
6D
330
A
100
AcDbEntity
  8
製肘
  6
Continuous
 62
     4
100
AcDbCircle
 10
11658.7576051325
 20
8331.6178806606
 30
0.0
 40
6.402500492500002
100
AcDbArc
 50
5.296371400009062
 51
54.70359799999988
  0
ARC
  5
6E
330
A
100
AcDbEntity
  8
製肘
  6
Continuous
 62
     4
100
AcDbCircle
 10
11658.7576051325
 20
8331.6178806606
 30
0.0
 40
6.402500492500002
100
AcDbArc
 50
65.29637100001297
 51
114.7036200000081
  0
ARC
  5
6F
330
A
100
AcDbEntity
  8
製肘
  6
Continuous
 62
     4
100
AcDbCircle
 10
11658.7576051325
 20
8331.6178806606
 30
0.0
 40
6.402500492500002
100
AcDbArc
 50
125.2964000000006
 51
174.7036200000117
  0
ARC
  5
70
330
A
100
AcDbEntity
  8
製肘
  6
Continuous
 62
     4
100
AcDbCircle
 10
11607.5755276325
 20
8331.6178806606
 30
0.0
 40
15.72210311
100
AcDbArc
 50
2.154281600000307
 51
45.48545799999884
  0
ARC
  5
71
330
A
100
AcDbEntity
  8
製肘
  6
Continuous
 62
     4
100
AcDbCircle
 10
11618.1837806325
 20
8342.407472160601
 30
0.0
 40
0.5910000000000001
100
AcDbArc
 50
45.48530499985687
 51
225.485299999967
  0
ARC
  5
72
330
A
100
AcDbEntity
  8
製肘
  6
Continuous
 62
     4
100
AcDbCircle
 10
11618.1837806325
 20
8320.8282891606
 30
0.0
 40
0.5910000000000001
100
AcDbArc
 50
134.5146900000072
 51
314.5146900001293
  0
ARC
  5
73
330
A
100
AcDbEntity
  8
製肘
  6
Continuous
 62
     4
100
AcDbCircle
 10
11607.5755276325
 20
8331.6178806606
 30
0.0
 40
14.54010311000001
100
AcDbArc
 50
314.5145200000019
 51
45.48547300000364
  0
ARC
  5
74
330
A
100
AcDbEntity
  8
製肘
  6
Continuous
 62
     4
100
AcDbCircle
 10
11607.5755276325
 20
8331.6178806606
 30
0.0
 40
15.72210311
100
AcDbArc
 50
314.5145400000042
 51
357.8457100000019
  0
ARC
  5
75
330
A
100
AcDbEntity
  8
製肘
  6
Continuous
 62
     4
100
AcDbCircle
 10
11633.1666156325
 20
8287.292880660599
 30
0.0
 40
15.72210311
100
AcDbArc
 50
62.15428100000645
 51
105.4854500000001
  0
ARC
  5
76
330
A
100
AcDbEntity
  8
製肘
  6
Continuous
 62
     4
100
AcDbCircle
 10
11629.1266381325
 20
8301.874722160599
 30
0.0
 40
0.5910000000000001
100
AcDbArc
 50
105.4853000001518
 51
285.4852999998172
  0
ARC
  5
77
330
A
100
AcDbEntity
  8
製肘
  6
Continuous
 62
     4
100
AcDbCircle
 10
11647.8147476325
 20
8291.085130660597
 30
0.0
 40
0.5910000000000001
100
AcDbArc
 50
194.5146899999054
 51
14.51469400002891
  0
ARC
  5
78
330
A
100
AcDbEntity
  8
製肘
  6
Continuous
 62
     4
100
AcDbCircle
 10
11633.1666156325
 20
8287.292880660599
 30
0.0
 40
14.54010311000001
100
AcDbArc
 50
14.5145260000005
 51
105.4854700000094
  0
ARC
  5
79
330
A
100
AcDbEntity
  8
製肘
  6
Continuous
 62
     4
100
AcDbCircle
 10
11633.1666156325
 20
8287.292880660599
 30
0.0
 40
15.72210311
100
AcDbArc
 50
14.51454100000208
 51
57.84571799999999
  0
ARC
  5
7A
330
A
100
AcDbEntity
  8
製肘
  6
Continuous
 62
     4
100
AcDbCircle
 10
11684.3486931325
 20
8287.292880660599
 30
0.0
 40
15.72210311
100
AcDbArc
 50
122.1542799999997
 51
165.4854499999967
  0
ARC
  5
7B
330
A
100
AcDbEntity
  8
製肘
  6
Continuous
 62
     4
100
AcDbCircle
 10
11669.7004626325
 20
8291.085130660597
 30
0.0
 40
0.5910000000000001
100
AcDbArc
 50
165.4852999998894
 51
345.4853000001012
  0
ARC
  5
7C
330
A
100
AcDbEntity
  8
製肘
  6
Continuous
 62
     4
100
AcDbCircle
 10
11688.3885721325
 20
8301.874722160599
 30
0.0
 40
0.5910000000000001
100
AcDbArc
 50
254.5146900000766
 51
74.51469400008057
  0
ARC
  5
7D
330
A
100
AcDbEntity
  8
製肘
  6
Continuous
 62
     4
100
AcDbCircle
 10
11684.3486931325
 20
8287.292880660599
 30
0.0
 40
14.54010311000001
100
AcDbArc
 50
74.51452600000212
 51
165.4854700000012
  0
ARC
  5
7E
330
A
100
AcDbEntity
  8
製肘
  6
Continuous
 62
     4
100
AcDbCircle
 10
11684.3486931325
 20
8287.292880660599
 30
0.0
 40
15.72210311
100
AcDbArc
 50
74.51454099999634
 51
117.8457099999937
  0
ARC
  5
7F
330
A
100
AcDbEntity
  8
製肘
  6
Continuous
 62
     4
100
AcDbCircle
 10
11709.9397811325
 20
8331.6178806606
 30
0.0
 40
15.72210311
100
AcDbArc
 50
182.1542799999971
 51
225.4854500000013
  0
ARC
  5
80
330
A
100
AcDbEntity
  8
製肘
  6
Continuous
 62
     4
100
AcDbCircle
 10
11699.3314296325
 20
8320.8282891606
 30
0.0
 40
0.5910000000000001
100
AcDbArc
 50
225.4852999998425
 51
45.48530500010237
  0
ARC
  5
81
330
A
100
AcDbEntity
  8
製肘
  6
Continuous
 62
     4
100
AcDbCircle
 10
11699.3314296325
 20
8342.407472160601
 30
0.0
 40
0.5910000000000001
100
AcDbArc
 50
314.5146899998839
 51
134.5146900001293
  0
ARC
  5
82
330
A
100
AcDbEntity
  8
製肘
  6
Continuous
 62
     4
100
AcDbCircle
 10
11709.9397811325
 20
8331.6178806606
 30
0.0
 40
14.54010311000001
100
AcDbArc
 50
134.5145200000019
 51
225.4854700000018
  0
ARC
  5
83
330
A
100
AcDbEntity
  8
製肘
  6
Continuous
 62
     4
100
AcDbCircle
 10
11709.9397811325
 20
8331.6178806606
 30
0.0
 40
15.72210311
100
AcDbArc
 50
134.5145400000042
 51
177.8457100000018
  0
ARC
  5
84
330
A
100
AcDbEntity
  8
製肘
  6
Continuous
 62
     4
100
AcDbCircle
 10
11684.3486931325
 20
8375.9428806606
 30
0.0
 40
15.72210311
100
AcDbArc
 50
242.1542800000063
 51
285.4854500000002
  0
ARC
  5
85
330
A
100
AcDbEntity
  8
製肘
  6
Continuous
 62
     4
100
AcDbCircle
 10
11688.3885721325
 20
8361.361039160602
 30
0.0
 40
0.5910000000000001
100
AcDbArc
 50
285.4852999999853
 51
105.4852999999853
  0
ARC
  5
86
330
A
100
AcDbEntity
  8
製肘
  6
Continuous
 62
     4
100
AcDbCircle
 10
11669.7004626325
 20
8372.1506306606
 30
0.0
 40
0.5910000000000001
100
AcDbArc
 50
14.51469399986049
 51
194.5146900000738
  0
ARC
  5
87
330
A
100
AcDbEntity
  8
製肘
  6
Continuous
 62
     4
100
AcDbCircle
 10
11684.3486931325
 20
8375.9428806606
 30
0.0
 40
14.54010311000001
100
AcDbArc
 50
194.5145199999968
 51
285.4854700000094
  0
ARC
  5
88
330
A
100
AcDbEntity
  8
製肘
  6
Continuous
 62
     4
100
AcDbCircle
 10
11684.3486931325
 20
8375.9428806606
 30
0.0
 40
15.72210311
100
AcDbArc
 50
194.5145399999996
 51
237.8457100000034
  0
ARC
  5
89
330
A
100
AcDbEntity
  8
製肘
  6
Continuous
 62
     4
100
AcDbCircle
 10
11633.1666156325
 20
8375.9428806606
 30
0.0
 40
15.72210311
100
AcDbArc
 50
302.1542799999997
 51
345.4854499999968
  0
ARC
  5
8A
330
A
100
AcDbEntity
  8
製肘
  6
Continuous
 62
     4
100
AcDbCircle
 10
11647.8147476325
 20
8372.1506306606
 30
0.0
 40
0.5910000000000001
100
AcDbArc
 50
345.4853000001012
 51
165.4853000001012
  0
ARC
  5
8B
330
A
100
AcDbEntity
  8
製肘
  6
Continuous
 62
     4
100
AcDbCircle
 10
11629.1266381325
 20
8361.361039160602
 30
0.0
 40
0.5910000000000001
100
AcDbArc
 50
74.51469400008057
 51
254.5146899999101
  0
ARC
  5
8C
330
A
100
AcDbEntity
  8
製肘
  6
Continuous
 62
     4
100
AcDbCircle
 10
11633.1666156325
 20
8375.9428806606
 30
0.0
 40
14.54010311000001
100
AcDbArc
 50
254.5145199999962
 51
345.485470000002
  0
ARC
  5
8D
330
A
100
AcDbEntity
  8
製肘
  6
Continuous
 62
     4
100
AcDbCircle
 10
11633.1666156325
 20
8375.9428806606
 30
0.0
 40
15.72210311
100
AcDbArc
 50
254.5145399999979
 51
297.8457099999937
  0
ARC
  5
8E
330
A
100
AcDbEntity
  8
製肘
  6
Continuous
 62
     4
100
AcDbCircle
 10
11610.9876661325
 20
8331.6178806606
 30
0.0
 40
0.9849999999999999
100
AcDbArc
 50
149.9999200000331
 51
210.0001199999979
  0
ARC
  5
8F
330
A
100
AcDbEntity
  8
製肘
  6
Continuous
 62
     4
100
AcDbCircle
 10
11682.6426731325
 20
8372.9878806606
 30
0.0
 40
0.9849999999999999
100
AcDbArc
 50
30.00002999991041
 51
90.0
  0
ARC
  5
90
330
A
100
AcDbEntity
  8
製肘
  6
Continuous
 62
     4
100
AcDbCircle
 10
11706.5276426325
 20
8331.6178806606
 30
0.0
 40
0.9849999999999999
100
AcDbArc
 50
329.9999600000114
 51
30.00002999991041
  0
ARC
  5
91
330
A
100
AcDbEntity
  8
製肘
  6
Continuous
 62
     4
100
AcDbCircle
 10
11682.6426731325
 20
8290.247880660599
 30
0.0
 40
0.9849999999999999
100
AcDbArc
 50
270.0
 51
329.9999600000114
  0
ARC
  5
92
330
A
100
AcDbEntity
  8
製肘
  6
Continuous
 62
     4
100
AcDbCircle
 10
11634.8726356325
 20
8290.247880660599
 30
0.0
 40
0.9849999999999999
100
AcDbArc
 50
210.0001199999979
 51
270.0
  0
ARC
  5
93
330
A
100
AcDbEntity
  8
製肘
  6
Continuous
 62
     4
100
AcDbCircle
 10
12032.2420251325
 20
8352.248410160601
 30
0.0
 40
294.3485251500002
100
AcDbArc
 50
178.1107999999997
 51
178.3364799999999
  0
ARC
  5
94
330
A
100
AcDbEntity
  8
製肘
  6
Continuous
 62
     4
100
AcDbCircle
 10
12032.2420251325
 20
8310.987449660601
 30
0.0
 40
294.3485251500002
100
AcDbArc
 50
181.6635100000004
 51
181.8891900000004
  0
ARC
  5
95
330
A
100
AcDbEntity
  8
製肘
  6
Continuous
 62
     4
100
AcDbCircle
 10
12146.6446531325
 20
8309.885431660601
 30
0.0
 40
408.7539407000001
100
AcDbArc
 50
178.3830500000004
 51
178.546
  0
ARC
  5
96
330
A
100
AcDbEntity
  8
製肘
  6
Continuous
 62
     4
100
AcDbCircle
 10
12146.6446531325
 20
8353.350329660599
 30
0.0
 40
408.7539407000001
100
AcDbArc
 50
181.4539899999997
 51
181.6169400000002
  0
ARC
  5
97
330
A
100
AcDbEntity
  8
製肘
  6
Continuous
 62
     4
100
AcDbCircle
 10
12129.8103136325
 20
8331.6178806606
 30
0.0
 40
394.0000000000003
100
AcDbArc
 50
174.9068199999999
 51
177.8779700000003
  0
ARC
  5
98
330
A
100
AcDbEntity
  8
製肘
  6
Continuous
 62
     4
100
AcDbCircle
 10
12129.8103136325
 20
8331.6178806606
 30
0.0
 40
394.0000000000003
100
AcDbArc
 50
182.1220200000004
 51
185.0931699999999
  0
ARC
  5
99
330
A
100
AcDbEntity
  8
製肘
  6
Continuous
 62
     4
100
AcDbCircle
 10
12032.2420251325
 20
8310.987449660601
 30
0.0
 40
294.2691637
100
AcDbArc
 50
175.9799
 51
184.0550300000001
  0
ARC
  5
9A
330
A
100
AcDbEntity
  8
製肘
  6
Continuous
 62
     4
100
AcDbCircle
 10
12129.8103136325
 20
8331.6178806606
 30
0.0
 40
394.0000000000003
100
AcDbArc
 50
185.9805999999999
 51
186.0423199999998
  0
ARC
  5
9B
330
A
100
AcDbEntity
  8
製肘
  6
Continuous
 62
     4
100
AcDbCircle
 10
12129.8103136325
 20
8331.6178806606
 30
0.0
 40
394.0000000000003
100
AcDbArc
 50
173.9576700000004
 51
174.0193900000001
  0
ARC
  5
9C
330
A
100
AcDbEntity
  8
製肘
  6
Continuous
 62
     4
100
AcDbCircle
 10
12032.2420251325
 20
8352.248410160601
 30
0.0
 40
294.2691637
100
AcDbArc
 50
175.9449599999997
 51
184.0200900000003
  0
ARC
  5
9D
330
A
100
AcDbEntity
  8
製肘
  6
Continuous
 62
     4
100
AcDbCircle
 10
11736.2085491325
 20
8325.8116011606
 30
0.0
 40
0.6895
100
AcDbArc
 50
180.0
 51
192.8663400000028
  0
LINE
  5
9E
330
A
100
AcDbEntity
  8
製肘
  6
Continuous
 62
     4
100
AcDbLine
 10
11738.6969546325
 20
8331.6178806606
 30
0.0
 11
11743.5062171325
 21
8331.6178806606
 31
0.0
  0
LINE
  5
9F
330
A
100
AcDbEntity
  8
製肘
  6
Continuous
 62
     4
100
AcDbLine
 10
11748.2970601325
 20
8373.726630660602
 30
0.0
 11
11777.1847461325
 21
8373.726630660602
 31
0.0
  0
LINE
  5
A0
330
A
100
AcDbEntity
  8
製肘
  6
Continuous
 62
     4
100
AcDbLine
 10
11738.9786646325
 20
8373.9728806606
 30
0.0
 11
11748.3212911325
 21
8373.9728806606
 31
0.0
  0
LINE
  5
A1
330
A
100
AcDbEntity
  8
製肘
  6
Continuous
 62
     4
100
AcDbLine
 10
11743.4977461325
 20
8299.7226941606
 30
0.0
 11
11743.4977461325
 21
8289.313312660601
 31
0.0
  0
LINE
  5
A2
330
A
100
AcDbEntity
  8
製肘
  6
Continuous
 62
     4
100
AcDbLine
 10
11748.2446581325
 20
8289.509130660601
 30
0.0
 11
11777.1847461325
 21
8289.509130660601
 31
0.0
  0
LINE
  5
A3
330
A
100
AcDbEntity
  8
製肘
  6
Continuous
 62
     4
100
AcDbLine
 10
11777.1847461325
 20
8363.513165660604
 30
0.0
 11
11743.4977461325
 21
8363.513165660604
 31
0.0
  0
LINE
  5
A4
330
A
100
AcDbEntity
  8
製肘
  6
Continuous
 62
     4
100
AcDbLine
 10
11777.1847461325
 20
8341.831345660601
 30
0.0
 11
11743.4977461325
 21
8341.831345660601
 31
0.0
  0
LINE
  5
A5
330
A
100
AcDbEntity
  8
製肘
  6
Continuous
 62
     4
100
AcDbLine
 10
11777.1847461325
 20
8321.4044156606
 30
0.0
 11
11743.4977461325
 21
8321.4044156606
 31
0.0
  0
LINE
  5
A6
330
A
100
AcDbEntity
  8
製肘
  6
Continuous
 62
     4
100
AcDbLine
 10
11777.1847461325
 20
8299.7226941606
 30
0.0
 11
11743.4977461325
 21
8299.7226941606
 31
0.0
  0
LINE
  5
A7
330
A
100
AcDbEntity
  8
製肘
  6
Continuous
 62
     4
100
AcDbLine
 10
11777.1847461325
 20
8373.726630660602
 30
0.0
 11
11777.1847461325
 21
8289.509130660601
 31
0.0
  0
LINE
  5
A8
330
A
100
AcDbEntity
  8
製肘
  6
Continuous
 62
     4
100
AcDbLine
 10
11737.1783801325
 20
8300.652829660599
 30
0.0
 11
11737.7687891325
 21
8302.130723660601
 31
0.0
  0
LINE
  5
A9
330
A
100
AcDbEntity
  8
製肘
  6
Continuous
 62
     4
100
AcDbLine
 10
11737.1305091325
 20
8300.353192660601
 30
0.0
 11
11737.7209181325
 21
8291.041495160602
 31
0.0
  0
LINE
  5
AA
330
A
100
AcDbEntity
  8
製肘
  6
Continuous
 62
     4
100
AcDbLine
 10
11737.4270926325
 20
8300.3720061606
 30
0.0
 11
11738.0534541325
 21
8290.494130660601
 31
0.0
  0
LINE
  5
AB
330
A
100
AcDbEntity
  8
製肘
  6
Continuous
 62
     4
100
AcDbLine
 10
11737.1783801325
 20
8362.5830301606
 30
0.0
 11
11737.7687891325
 21
8361.105136160601
 31
0.0
  0
LINE
  5
AC
330
A
100
AcDbEntity
  8
製肘
  6
Continuous
 62
     4
100
AcDbLine
 10
11737.1305091325
 20
8362.882667160603
 30
0.0
 11
11737.7209181325
 21
8372.194266160601
 31
0.0
  0
LINE
  5
AD
330
A
100
AcDbEntity
  8
製肘
  6
Continuous
 62
     4
100
AcDbLine
 10
11737.4270926325
 20
8362.863853660599
 30
0.0
 11
11738.0534541325
 21
8372.741630660602
 31
0.0
  0
LINE
  5
AE
330
A
100
AcDbEntity
  8
製肘
  6
Continuous
 62
     4
100
AcDbLine
 10
11737.1291301325
 20
8362.838933160601
 30
0.0
 11
11735.5190491325
 21
8337.303202160603
 31
0.0
  0
LINE
  5
AF
330
A
100
AcDbEntity
  8
製肘
  6
Continuous
 62
     4
100
AcDbLine
 10
11737.4433451325
 20
8361.919632660601
 30
0.0
 11
11735.8623216325
 21
8336.843502660601
 31
0.0
  0
LINE
  5
B0
330
A
100
AcDbEntity
  8
製肘
  6
Continuous
 62
     4
100
AcDbLine
 10
11737.4543771325
 20
8362.693251660601
 30
0.0
 11
11737.7017106325
 21
8362.074080660601
 31
0.0
  0
LINE
  5
B1
330
A
100
AcDbEntity
  8
製肘
  6
Continuous
 62
     4
100
AcDbLine
 10
11737.4543771325
 20
8300.5425096606
 30
0.0
 11
11737.7017106325
 21
8301.161779160599
 31
0.0
  0
LINE
  5
B2
330
A
100
AcDbEntity
  8
製肘
  6
Continuous
 62
     4
100
AcDbLine
 10
11735.8623216325
 20
8332.2088806606
 30
0.0
 11
11737.1308046325
 21
8332.2088806606
 31
0.0
  0
LINE
  5
B3
330
A
100
AcDbEntity
  8
製肘
  6
Continuous
 62
     4
100
AcDbLine
 10
11735.8623216325
 20
8331.026880660601
 30
0.0
 11
11737.1308046325
 21
8331.026880660601
 31
0.0
  0
LINE
  5
B4
330
A
100
AcDbEntity
  8
製肘
  6
Continuous
 62
     4
100
AcDbLine
 10
11735.8623216325
 20
8338.0203806606
 30
0.0
 11
11735.8623216325
 21
8332.2088806606
 31
0.0
  0
ARC
  5
B5
330
A
100
AcDbEntity
  8
製肘
  6
Continuous
 62
     4
100
AcDbCircle
 10
11738.4095316325
 20
8291.085130660597
 30
0.0
 40
0.6899581235000002
100
AcDbArc
 50
183.6283499999268
 51
238.9348900000982
  0
ARC
  5
B6
330
A
100
AcDbEntity
  8
製肘
  6
Continuous
 62
     4
100
AcDbCircle
 10
11737.8190241325
 20
8300.396828160598
 30
0.0
 40
0.392704922
100
AcDbArc
 50
158.2223600001047
 51
183.6276800000181
  0
ARC
  5
B7
330
A
100
AcDbEntity
  8
製肘
  6
Continuous
 62
     4
100
AcDbCircle
 10
11737.8190241325
 20
8300.396828160598
 30
0.0
 40
0.6899581235000002
100
AcDbArc
 50
158.2228299999372
 51
183.6283500000751
  0
ARC
  5
B8
330
A
100
AcDbEntity
  8
製肘
  6
Continuous
 62
     4
100
AcDbCircle
 10
11738.4095316325
 20
8372.1506306606
 30
0.0
 40
0.6899581235000002
100
AcDbArc
 50
121.0651000000172
 51
176.3716399999654
  0
ARC
  5
B9
330
A
100
AcDbEntity
  8
製肘
  6
Continuous
 62
     4
100
AcDbCircle
 10
11737.8190241325
 20
8362.838933160601
 30
0.0
 40
0.392704922
100
AcDbArc
 50
176.3723100000744
 51
201.7776299999098
  0
ARC
  5
BA
330
A
100
AcDbEntity
  8
製肘
  6
Continuous
 62
     4
100
AcDbCircle
 10
11737.8190241325
 20
8362.838933160601
 30
0.0
 40
0.6899581235000002
100
AcDbArc
 50
176.3716399999654
 51
201.7771599999718
  0
ARC
  5
BB
330
A
100
AcDbEntity
  8
製肘
  6
Continuous
 62
     4
100
AcDbCircle
 10
11736.2085491325
 20
8337.424160160601
 30
0.0
 40
0.6895
100
AcDbArc
 50
167.1336500000001
 51
180.0
  0
ARC
  5
BC
330
A
100
AcDbEntity
  8
製肘
  6
Continuous
 62
     4
100
AcDbCircle
 10
11738.4095316325
 20
8361.361039160602
 30
0.0
 40
0.6899581235000002
100
AcDbArc
 50
121.062850000037
 51
235.3839500001385
  0
ARC
  5
BD
330
A
100
AcDbEntity
  8
製肘
  6
Continuous
 62
     4
100
AcDbCircle
 10
11737.9304276325
 20
8362.165390160601
 30
0.0
 40
0.24625
100
AcDbArc
 50
201.7750799997893
 51
299.9723800000282
  0
ARC
  5
BE
330
A
100
AcDbEntity
  8
製肘
  6
Continuous
 62
     4
100
AcDbCircle
 10
11737.9304276325
 20
8301.0703711606
 30
0.0
 40
0.24625
100
AcDbArc
 50
60.02761799989611
 51
158.2249099999231
  0
ARC
  5
BF
330
A
100
AcDbEntity
  8
製肘
  6
Continuous
 62
     4
100
AcDbCircle
 10
11738.4095316325
 20
8301.874722160599
 30
0.0
 40
0.6899581235000002
100
AcDbArc
 50
124.616039999917
 51
238.9371399999753
  0
ARC
  5
C0
330
A
100
AcDbEntity
  8
製肘
  6
Continuous
 62
     4
100
AcDbCircle
 10
11738.4095316325
 20
8320.8282891606
 30
0.0
 40
0.6899581235000002
100
AcDbArc
 50
121.0659699999411
 51
235.8642099999498
  0
ARC
  5
C1
330
A
100
AcDbEntity
  8
製肘
  6
Continuous
 62
     4
100
AcDbCircle
 10
11738.4095316325
 20
8342.407472160601
 30
0.0
 40
0.6899581235000002
100
AcDbArc
 50
124.1357800001186
 51
238.9340200000968
  0
ARC
  5
C2
330
A
100
AcDbEntity
  8
製肘
  6
Continuous
 62
     4
100
AcDbCircle
 10
11836.6991356325
 20
8331.6178806606
 30
0.0
 40
99.17147450000001
100
AcDbArc
 50
174.0973800000005
 51
185.9026100000001
  0
ARC
  5
C3
330
A
100
AcDbEntity
  8
製肘
  6
Continuous
 62
     4
100
AcDbCircle
 10
11836.6991356325
 20
8331.6178806606
 30
0.0
 40
99.57001535000005
100
AcDbArc
 50
173.7355300000004
 51
179.6599099999997
  0
ARC
  5
C4
330
A
100
AcDbEntity
  8
製肘
  6
Continuous
 62
     4
100
AcDbCircle
 10
11836.6991356325
 20
8331.6178806606
 30
0.0
 40
99.57001535000005
100
AcDbArc
 50
180.3400800000009
 51
186.2644600000003
  0
ARC
  5
C5
330
A
100
AcDbEntity
  8
製肘
  6
Continuous
 62
     4
100
AcDbCircle
 10
11736.1995856325
 20
8331.6178806606
 30
0.0
 40
0.6804609505000001
100
AcDbArc
 50
119.7114099999577
 51
240.2885799998992
  0
ARC
  5
C6
330
A
100
AcDbEntity
  8
製肘
  6
Continuous
 62
     4
100
AcDbCircle
 10
11738.9786646325
 20
8290.247880660599
 30
0.0
 40
0.9849999999999999
100
AcDbArc
 50
186.042400000024
 51
268.4911799999715
  0
ARC
  5
C7
330
A
100
AcDbEntity
  8
製肘
  6
Continuous
 62
     4
100
AcDbCircle
 10
11739.6920016325
 20
8290.247880660599
 30
0.0
 40
0.9849999999999999
100
AcDbArc
 50
184.0553100000196
 51
270.0
  0
ARC
  5
C8
330
A
100
AcDbEntity
  8
製肘
  6
Continuous
 62
     4
100
AcDbCircle
 10
11738.9786646325
 20
8372.9878806606
 30
0.0
 40
0.9849999999999999
100
AcDbArc
 50
91.508818999999
 51
173.9575900000204
  0
ARC
  5
C9
330
A
100
AcDbEntity
  8
製肘
  6
Continuous
 62
     4
100
AcDbCircle
 10
11739.6920016325
 20
8372.9878806606
 30
0.0
 40
0.9849999999999999
100
AcDbArc
 50
90.0
 51
175.9446800000033
  0
LINE
  5
CA
330
A
100
AcDbEntity
  8
製肘
  6
Continuous
 62
     4
100
AcDbLine
 10
11738.9786646325
 20
8289.262880660601
 30
0.0
 11
11748.0343606325
 21
8289.262880660601
 31
0.0
  0
LINE
  5
CB
330
A
100
AcDbEntity
  8
製肘
  6
Continuous
 62
     4
100
AcDbLine
 10
11743.4977461325
 20
8363.513165660604
 30
0.0
 11
11743.4977461325
 21
8373.941951660603
 31
0.0
  0
LINE
  5
CC
330
A
100
AcDbEntity
  8
製肘
  6
Continuous
 62
     4
100
AcDbLine
 10
11735.5190491325
 20
8337.424160160601
 30
0.0
 11
11735.5190491325
 21
8325.932559160602
 31
0.0
  0
LINE
  5
CD
330
A
100
AcDbEntity
  8
製肘
  6
Continuous
 62
     4
100
AcDbLine
 10
11737.4433451325
 20
8301.3161286606
 30
0.0
 11
11735.8623216325
 21
8326.392357160599
 31
0.0
  0
LINE
  5
CE
330
A
100
AcDbEntity
  8
製肘
  6
Continuous
 62
     4
100
AcDbLine
 10
11735.8623216325
 20
8331.026880660601
 30
0.0
 11
11735.8623216325
 21
8326.392357160599
 31
0.0
  0
LINE
  5
CF
330
A
100
AcDbEntity
  8
製肘
  6
Continuous
 62
     4
100
AcDbLine
 10
11737.1291301325
 20
8300.396926660601
 30
0.0
 11
11735.5190491325
 21
8325.932559160602
 31
0.0
  0
LINE
  5
D0
330
A
100
AcDbEntity
  8
製肘
  6
Continuous
 62
     4
100
AcDbLine
 10
11743.4977461325
 20
8341.831345660601
 30
0.0
 11
11743.4977461325
 21
8321.4044156606
 31
0.0
  0
ARC
  5
D1
330
A
100
AcDbEntity
  8
製肘
  6
Continuous
 62
     4
100
AcDbCircle
 10
11622.15331832
 20
8149.542108412067
 30
0.0
 40
106.2364014646893
100
AcDbArc
 50
83.43249662802113
 51
96.56750337197888
  0
ARC
  5
D2
330
A
100
AcDbEntity
  8
製肘
  6
Continuous
 62
     4
100
AcDbCircle
 10
11658.7576051325
 20
7826.535186252029
 30
0.0
 40
429.2432963129825
100
AcDbArc
 50
86.73413877726721
 51
93.26586122273278
  0
LINE
  5
D3
330
A
100
AcDbEntity
  8
製肘
  6
Continuous
 62
     4
100
AcDbLine
 10
11615.7470241521
 20
8250.2805206606
 30
0.0
 11
11615.7470241521
 21
8216.5935206606
 31
0.0
  0
LINE
  5
D4
330
A
100
AcDbEntity
  8
製肘
  6
Continuous
 62
     4
100
AcDbLine
 10
11610.0026661325
 20
8255.081364841059
 30
0.0
 11
11610.0026661325
 21
8250.2805206606
 31
0.0
  0
LINE
  5
D5
330
A
100
AcDbEntity
  8
製肘
  6
Continuous
 62
     4
100
AcDbLine
 10
11701.76825348975
 20
8216.5935206606
 30
0.0
 11
11615.7470241521
 21
8216.5935206606
 31
0.0
  0
LINE
  5
D6
330
A
100
AcDbEntity
  8
製肘
  6
Continuous
 62
     4
100
AcDbLine
 10
11707.5125441325
 20
8255.081364841059
 30
0.0
 11
11707.5125441325
 21
8250.2805206606
 31
0.0
  0
LINE
  5
D7
330
A
100
AcDbEntity
  8
製肘
  6
Continuous
 62
     4
100
AcDbLine
 10
11701.76825348975
 20
8250.2805206606
 30
0.0
 11
11701.76825348975
 21
8216.5935206606
 31
0.0
  0
LINE
  5
D8
330
A
100
AcDbEntity
  8
製肘
  6
Continuous
 62
     4
100
AcDbLine
 10
11689.10804946174
 20
8250.2805206606
 30
0.0
 11
11689.10804946174
 21
8216.5935206606
 31
0.0
  0
LINE
  5
D9
330
A
100
AcDbEntity
  8
製肘
  6
Continuous
 62
     4
100
AcDbLine
 10
11671.41781626166
 20
8250.2805206606
 30
0.0
 11
11671.41781626166
 21
8216.5935206606
 31
0.0
  0
LINE
  5
DA
330
A
100
AcDbEntity
  8
製肘
  6
Continuous
 62
     4
100
AcDbLine
 10
11646.09739400334
 20
8250.2805206606
 30
0.0
 11
11646.09739400334
 21
8216.5935206606
 31
0.0
  0
LINE
  5
DB
330
A
100
AcDbEntity
  8
製肘
  6
Continuous
 62
     4
100
AcDbLine
 10
11628.40723635984
 20
8250.2805206606
 30
0.0
 11
11628.40723635984
 21
8216.5935206606
 31
0.0
  0
LINE
  5
DC
330
A
100
AcDbEntity
  8
製肘
  6
Continuous
 62
     4
100
AcDbLine
 10
11634.3039705075
 20
8255.081364841059
 30
0.0
 11
11634.3039705075
 21
8250.2805206606
 31
0.0
  0
LINE
  5
DD
330
A
100
AcDbEntity
  8
製肘
  6
Continuous
 62
     4
100
AcDbLine
 10
11683.2112397575
 20
8255.081364841059
 30
0.0
 11
11683.2112397575
 21
8250.2805206606
 31
0.0
  0
LINE
  5
DE
330
A
100
AcDbEntity
  8
製肘
  6
Continuous
 62
     4
100
AcDbLine
 10
11707.5125441325
 20
8250.2805206606
 30
0.0
 11
11701.76825348975
 21
8250.2805206606
 31
0.0
  0
LINE
  5
DF
330
A
100
AcDbEntity
  8
製肘
  6
Continuous
 62
     4
100
AcDbLine
 10
11689.10804946174
 20
8250.2805206606
 30
0.0
 11
11671.41781626166
 21
8250.2805206606
 31
0.0
  0
LINE
  5
E0
330
A
100
AcDbEntity
  8
製肘
  6
Continuous
 62
     4
100
AcDbLine
 10
11646.09739400334
 20
8250.2805206606
 30
0.0
 11
11628.40723635984
 21
8250.2805206606
 31
0.0
  0
LINE
  5
E1
330
A
100
AcDbEntity
  8
製肘
  6
Continuous
 62
     4
100
AcDbLine
 10
11615.7470241521
 20
8250.2805206606
 30
0.0
 11
11610.0026661325
 21
8250.2805206606
 31
0.0
  0
ARC
  5
E2
330
A
100
AcDbEntity
  8
製肘
  6
Continuous
 62
     4
100
AcDbCircle
 10
11658.7576051325
 20
7826.535186252029
 30
0.0
 40
429.4402963129824
100
AcDbArc
 50
86.73413877726721
 51
93.26586122273278
  0
ARC
  5
E3
330
A
100
AcDbEntity
  8
製肘
  6
Continuous
 62
     4
100
AcDbCircle
 10
11629.0281381325
 20
8255.753246245578
 30
0.0
 40
0.4925
100
AcDbArc
 50
86.29653309050299
 51
180.0
  0
ARC
  5
E4
330
A
100
AcDbEntity
  8
製肘
  6
Continuous
 62
     4
100
AcDbCircle
 10
11647.89438513466
 20
8255.838061328191
 30
0.0
 40
0.4925
100
AcDbArc
 50
0.0
 51
91.44952176797906
  0
ARC
  5
E5
330
A
100
AcDbEntity
  8
製肘
  6
Continuous
 62
     4
100
AcDbCircle
 10
11618.0852806325
 20
8255.94533240717
 30
0.0
 40
0.4925
100
AcDbArc
 50
95.54777421561535
 51
180.0
  0
ARC
  5
E6
330
A
100
AcDbEntity
  8
製肘
  6
Continuous
 62
     4
100
AcDbCircle
 10
11622.7940731325
 20
8255.973581109826
 30
0.0
 40
0.4925
100
AcDbArc
 50
0.0
 51
89.65506346964222
  0
ARC
  5
E7
330
A
100
AcDbEntity
  8
製肘
  6
Continuous
 62
     4
100
AcDbCircle
 10
11622.15331832
 20
8149.542108412067
 30
0.0
 40
106.9259014646893
100
AcDbArc
 50
89.65506346953805
 51
92.18948181800453
  0
ARC
  5
E8
330
A
100
AcDbEntity
  8
製肘
  6
Continuous
 62
     4
100
AcDbCircle
 10
11622.15331832
 20
8149.542108412067
 30
0.0
 40
106.4334014646893
100
AcDbArc
 50
83.43249662802104
 51
92.45424641074871
  0
ARC
  5
E9
330
A
100
AcDbEntity
  8
製肘
  6
Continuous
 62
     4
100
AcDbCircle
 10
11658.7576051325
 20
7837.207080535026
 30
0.0
 40
421.201379822109
100
AcDbArc
 50
84.45222578445441
 51
95.54777421554724
  0
ARC
  5
EA
330
A
100
AcDbEntity
  8
製肘
  6
Continuous
 62
     4
100
AcDbCircle
 10
11655.58934247084
 20
8257.904030456082
 30
0.0
 40
0.4925
100
AcDbArc
 50
0.0
 51
90.43148553203037
  0
LINE
  5
EB
330
A
100
AcDbEntity
  8
製肘
  6
Continuous
 62
     4
100
AcDbLine
 10
11629.02592407232
 20
8256.245741268841
 30
0.0
 11
11647.89217107449
 21
8256.330556351455
 31
0.0
  0
LINE
  5
EC
330
A
100
AcDbEntity
  8
製肘
  6
Continuous
 62
     4
100
AcDbLine
 10
11628.53659432824
 20
8255.783920966022
 30
0.0
 11
11648.3867345973
 21
8255.850237399497
 31
0.0
  0
LINE
  5
ED
330
A
100
AcDbEntity
  8
製肘
  6
Continuous
 62
     4
100
AcDbLine
 10
11640.51028957321
 20
8256.297370371838
 30
0.0
 11
11655.0582406325
 21
8258.392214491944
 31
0.0
  0
LINE
  5
EE
330
A
100
AcDbEntity
  8
製肘
  6
Continuous
 62
     4
100
AcDbLine
 10
11644.07716386723
 20
8256.313405608574
 30
0.0
 11
11655.12843457825
 21
8257.904742379942
 31
0.0
  0
ARC
  5
EF
330
A
100
AcDbEntity
  8
製肘
  6
Continuous
 62
     4
100
AcDbCircle
 10
11658.7576051325
 20
7837.207080535026
 30
0.0
 40
420.708879822109
100
AcDbArc
 50
83.34517736977717
 51
90.4987218283434
  0
ARC
  5
F0
330
A
100
AcDbEntity
  8
製肘
  6
Continuous
 62
     4
100
AcDbCircle
 10
11658.7576051325
 20
7837.207080535026
 30
0.0
 40
420.708879822109
100
AcDbArc
 50
91.01697419403489
 51
94.8695306790524
  0
ARC
  5
F1
330
A
100
AcDbEntity
  8
製肘
  6
Continuous
 62
     4
100
AcDbCircle
 10
11695.361891945
 20
8149.542108412067
 30
0.0
 40
106.2364014646893
100
AcDbArc
 50
83.43249662802104
 51
96.56750337197896
  0
ARC
  5
F2
330
A
100
AcDbEntity
  8
製肘
  6
Continuous
 62
     4
100
AcDbCircle
 10
11688.4870721325
 20
8255.753246245578
 30
0.0
 40
0.4925
100
AcDbArc
 50
0.0
 51
93.703466909497
  0
ARC
  5
F3
330
A
100
AcDbEntity
  8
製肘
  6
Continuous
 62
     4
100
AcDbCircle
 10
11669.62082513034
 20
8255.838061328191
 30
0.0
 40
0.4925
100
AcDbArc
 50
88.55047823202093
 51
180.0
  0
ARC
  5
F4
330
A
100
AcDbEntity
  8
製肘
  6
Continuous
 62
     4
100
AcDbCircle
 10
11699.4299296325
 20
8255.94533240717
 30
0.0
 40
0.4925
100
AcDbArc
 50
0.0
 51
84.45222578459226
  0
ARC
  5
F5
330
A
100
AcDbEntity
  8
製肘
  6
Continuous
 62
     4
100
AcDbCircle
 10
11694.7211371325
 20
8255.973581109826
 30
0.0
 40
0.4925
100
AcDbArc
 50
90.34493653056612
 51
180.0
  0
ARC
  5
F6
330
A
100
AcDbEntity
  8
製肘
  6
Continuous
 62
     4
100
AcDbCircle
 10
11695.361891945
 20
8149.542108412067
 30
0.0
 40
106.9259014646893
100
AcDbArc
 50
87.81051818199713
 51
90.34493653046196
  0
ARC
  5
F7
330
A
100
AcDbEntity
  8
製肘
  6
Continuous
 62
     4
100
AcDbCircle
 10
11695.361891945
 20
8149.542108412067
 30
0.0
 40
106.4334014646893
100
AcDbArc
 50
87.54575358925128
 51
96.56750337197888
  0
ARC
  5
F8
330
A
100
AcDbEntity
  8
製肘
  6
Continuous
 62
     4
100
AcDbCircle
 10
11661.92586779415
 20
8257.904030456082
 30
0.0
 40
0.4925
100
AcDbArc
 50
89.56851446838623
 51
180.0
  0
LINE
  5
F9
330
A
100
AcDbEntity
  8
製肘
  6
Continuous
 62
     4
100
AcDbLine
 10
11688.48928619267
 20
8256.245741268841
 30
0.0
 11
11669.62303919051
 21
8256.330556351455
 31
0.0
  0
LINE
  5
FA
330
A
100
AcDbEntity
  8
製肘
  6
Continuous
 62
     4
100
AcDbLine
 10
11688.97861593675
 20
8255.783920966022
 30
0.0
 11
11669.12847566769
 21
8255.850237399497
 31
0.0
  0
LINE
  5
FB
330
A
100
AcDbEntity
  8
製肘
  6
Continuous
 62
     4
100
AcDbLine
 10
11677.00492069178
 20
8256.297370371838
 30
0.0
 11
11662.4569696325
 21
8258.392214491944
 31
0.0
  0
LINE
  5
FC
330
A
100
AcDbEntity
  8
製肘
  6
Continuous
 62
     4
100
AcDbLine
 10
11673.43804639777
 20
8256.313405608574
 30
0.0
 11
11662.38677568674
 21
8257.904742379942
 31
0.0
  0
ARC
  5
FD
330
A
100
AcDbEntity
  8
製肘
  6
Continuous
 62
     4
100
AcDbCircle
 10
11658.7576051325
 20
7837.207080535026
 30
0.0
 40
420.708879822109
100
AcDbArc
 50
85.13046932094759
 51
88.98302580596512
  0
TEXT
  5
119
330
A
100
AcDbEntity
  8
寸法
  6
Continuous
 62
     7
100
AcDbText
 10
11628.12693602684
 20
8442.680398213452
 30
0.0
 40
6.0
  1
ローンマーカーＬＧＭ－０３
 41
1.288546255506607
  7
EXCADSTD
 72
     5
 11
11745.12693602684
 21
8442.680398213452
 31
0.0
100
AcDbText
  0
DIMENSION
  5
1ED
330
A
100
AcDbEntity
  8
寸法
  6
Continuous
100
AcDbDimension
280
     0
  2
*D9
 10
11707.3806526325
 20
8394.401290317368
 30
0.0
 11
11658.7576543825
 21
8394.401290317368
 31
0.0
 70
    32
 71
     5
 42
97.24599650000165
 73
     0
 74
     0
 75
     0
  3
コピー ～ STANDARD
100
AcDbAlignedDimension
 13
11610.1346561325
 23
8331.1253806606
 33
0.0
 14
11707.3806526325
 24
8331.1253806606
 34
0.0
100
AcDbRotatedDimension
  0
DIMENSION
  5
1FC
330
A
100
AcDbEntity
  8
寸法
  6
Continuous
100
AcDbDimension
280
     0
  2
*D10
 10
11722.69702380613
 20
8289.262880660599
 30
0.0
 11
11722.69702380613
 21
8331.6178806606
 31
0.0
 70
    32
 71
     5
 42
84.71000000000094
 73
     0
 74
     0
 75
     0
  3
コピー ～ STANDARD
100
AcDbAlignedDimension
 13
11682.6426731325
 23
8373.9728806606
 33
0.0
 14
11682.6426731325
 24
8289.262880660599
 34
0.0
 50
90.0
100
AcDbRotatedDimension
  0
DIMENSION
  5
20A
330
A
100
AcDbEntity
  8
寸法
  6
Continuous
100
AcDbDimension
280
     0
  2
*D11
 10
11722.87702380613
 20
8216.5935206606
 30
0.0
 11
11722.87702380613
 21
8237.492867576275
 31
0.0
 70
    32
 71
     5
 42
41.79869383134246
 73
     0
 74
     0
 75
     0
  3
コピー ～ STANDARD
100
AcDbAlignedDimension
 13
11662.4569696325
 23
8258.392214491944
 33
0.0
 14
11662.4569696325
 24
8216.5935206606
 34
0.0
 50
90.0
100
AcDbRotatedDimension
  0
VIEWPORT
  5
221
102
{ACAD_XDICTIONARY
360
222
102
}
330
B
100
AcDbEntity
 67
     1
  8
0
  6
Continuous
100
AcDbViewport
 10
5.647083793099471
 20
3.935416570798618
 30
0.0
 40
15.9796852940368
 41
8.746133096049151
 68
     1
 69
     1
 12
5.647083793099471
 22
3.935416570798618
 13
0.0
 23
0.0
 14
10.0
 24
10.0
 15
10.0
 25
10.0
 16
0.0
 26
0.0
 36
1.0
 17
0.0
 27
0.0
 37
0.0
 42
50.0
 43
0.0
 44
0.0
 45
8.746133096049151
 50
0.0
 51
0.0
 72
   100
 90
   557088
  1

281
     0
 71
     1
 74
     0
110
0.0
120
0.0
130
0.0
111
1.0
121
0.0
131
0.0
112
0.0
122
1.0
132
0.0
 79
     0
146
0.0
170
     0
 61
     5
348
13E
292
     1
282
     1
141
0.0
142
0.0
 63
   250
421
  3355443
  0
VIEWPORT
  5
226
102
{ACAD_XDICTIONARY
360
227
102
}
330
B
100
AcDbEntity
 67
     1
  8
寸法
  6
Continuous
100
AcDbViewport
 10
5.647083192359744
 20
3.935416843008807
 30
0.0
 40
9.035333107775592
 41
6.296666948814092
 68
     2
 69
     2
 12
11713.58410256625
 22
8319.340199106726
 13
0.0
 23
0.0
 14
10.0
 24
10.0
 15
10.0
 25
10.0
 16
0.0
 26
0.0
 36
1.0
 17
0.0
 27
0.0
 37
0.0
 42
50.0
 43
0.0
 44
0.0
 45
260.8790074950059
 50
0.0
 51
0.0
 72
   100
 90
   557088
  1

281
     0
 71
     1
 74
     0
110
0.0
120
0.0
130
0.0
111
1.0
121
0.0
131
0.0
112
0.0
122
1.0
132
0.0
 79
     0
146
0.0
170
     0
 61
     5
348
13E
292
     1
282
     1
141
0.0
142
0.0
 63
   250
421
  3355443
  0
ENDSEC
  0
SECTION
  2
OBJECTS
  0
DICTIONARY
  5
19
330
0
100
AcDbDictionary
281
     1
  3
ACAD_CIP_PREVIOUS_PRODUCT_INFO
350
174
  3
ACAD_COLOR
350
151
  3
ACAD_DETAILVIEWSTYLE
350
16B
  3
ACAD_GROUP
350
1A
  3
ACAD_LAYOUT
350
16D
  3
ACAD_MATERIAL
350
11F
  3
ACAD_MLEADERSTYLE
350
166
  3
ACAD_MLINESTYLE
350
1B
  3
ACAD_PLOTSETTINGS
350
16E
  3
ACAD_PLOTSTYLENAME
350
11D
  3
ACAD_SCALELIST
350
154
  3
ACAD_SECTIONVIEWSTYLE
350
168
  3
ACAD_TABLESTYLE
350
152
  3
ACAD_VISUALSTYLE
350
138
  3
ACDB_RECOMPOSE_DATA
350
24A
  3
AcDbVariableDictionary
350
185
  0
DICTIONARY
  5
17E
330
2
100
AcDbDictionary
280
     1
281
     1
  3
ACAD_LAYERSTATES
360
17F
  0
DICTIONARY
  5
175
330
14
100
AcDbDictionary
280
     1
281
     1
  3
ADSK_XREC_LAYER_RECONCILED
360
176
  0
DICTIONARY
  5
177
330
25
100
AcDbDictionary
280
     1
281
     1
  3
ADSK_XREC_LAYER_RECONCILED
360
178
  0
DICTIONARY
  5
179
330
26
100
AcDbDictionary
280
     1
281
     1
  3
ADSK_XREC_LAYER_RECONCILED
360
17A
  0
DICTIONARY
  5
222
330
221
100
AcDbDictionary
280
     1
281
     1
  3
ASDK_XREC_ANNOTATION_SCALE_INFO
360
223
  0
DICTIONARY
  5
227
330
226
100
AcDbDictionary
280
     1
281
     1
  3
ASDK_XREC_ANNOTATION_SCALE_INFO
360
228
  0
XRECORD
  5
174
102
{ACAD_REACTORS
330
19
102
}
330
19
100
AcDbXrecord
280
     1
300
ACDLT
300
2013
300
ACDLT_F_S
  0
DICTIONARY
  5
151
102
{ACAD_REACTORS
330
19
102
}
330
19
100
AcDbDictionary
281
     1
  0
DICTIONARY
  5
16B
102
{ACAD_REACTORS
330
19
102
}
330
19
100
AcDbDictionary
281
     1
  3
Imperial24
350
16C
  0
DICTIONARY
  5
1A
102
{ACAD_REACTORS
330
19
102
}
330
19
100
AcDbDictionary
281
     1
  0
DICTIONARY
  5
16D
102
{ACAD_REACTORS
330
19
102
}
330
19
100
AcDbDictionary
281
     1
  3
Model
350
16F
  3
レイアウト1
350
170
  0
DICTIONARY
  5
11F
102
{ACAD_REACTORS
330
19
102
}
330
19
100
AcDbDictionary
281
     1
  3
ByBlock
350
128
  3
ByLayer
350
120
  3
Global
350
130
  0
DICTIONARY
  5
166
102
{ACAD_REACTORS
330
19
102
}
330
19
100
AcDbDictionary
281
     1
  3
Standard
350
167
  0
DICTIONARY
  5
1B
102
{ACAD_REACTORS
330
19
102
}
330
19
100
AcDbDictionary
281
     1
  3
STANDARD
350
1C
  0
DICTIONARY
  5
16E
102
{ACAD_REACTORS
330
19
102
}
330
19
100
AcDbDictionary
281
     1
  0
ACDBDICTIONARYWDFLT
  5
11D
102
{ACAD_REACTORS
330
19
102
}
330
19
100
AcDbDictionary
281
     1
  3
Normal
350
11E
100
AcDbDictionaryWithDefault
340
11E
  0
DICTIONARY
  5
154
102
{ACAD_REACTORS
330
19
102
}
330
19
100
AcDbDictionary
281
     1
  3
A0
350
155
  3
A1
350
156
  3
A2
350
157
  3
A3
350
158
  3
A4
350
159
  3
A5
350
15A
  3
A6
350
15B
  3
A7
350
15C
  3
A8
350
15D
  3
A9
350
15E
  3
B0
350
15F
  3
B1
350
160
  3
B2
350
161
  3
B3
350
162
  3
B4
350
163
  3
B5
350
164
  3
B6
350
165
  0
DICTIONARY
  5
168
102
{ACAD_REACTORS
330
19
102
}
330
19
100
AcDbDictionary
281
     1
  3
Imperial24
350
16A
  0
DICTIONARY
  5
152
102
{ACAD_REACTORS
330
19
102
}
330
19
100
AcDbDictionary
281
     1
  3
Standard
350
153
  0
DICTIONARY
  5
138
102
{ACAD_REACTORS
330
19
102
}
330
19
100
AcDbDictionary
281
     1
  3
2dWireframe
350
13E
  3
Basic
350
13D
  3
Brighten
350
144
  3
ColorChange
350
148
  3
Conceptual
350
141
  3
Dim
350
143
  3
EdgeColorOff
350
150
  3
Facepattern
350
147
  3
Flat
350
139
  3
FlatWithEdges
350
13A
  3
Gouraud
350
13B
  3
GouraudWithEdges
350
13C
  3
Hidden
350
140
  3
JitterOff
350
14E
  3
Linepattern
350
146
  3
OverhangOff
350
14F
  3
Realistic
350
142
  3
Shaded
350
14D
  3
Shaded with edges
350
14C
  3
Shades of Gray
350
149
  3
Sketchy
350
14A
  3
Thicken
350
145
  3
Wireframe
350
13F
  3
X-Ray
350
14B
  0
XRECORD
  5
24A
102
{ACAD_REACTORS
330
19
102
}
330
19
100
AcDbXrecord
280
     1
 90
        1
330
153
  0
DICTIONARY
  5
185
102
{ACAD_REACTORS
330
19
102
}
330
19
100
AcDbDictionary
281
     1
  3
CANNOSCALE
350
18B
  3
CMLEADERSTYLE
350
187
  3
CTABLESTYLE
350
186
  3
CVIEWDETAILSTYLE
350
188
  3
CVIEWSECTIONSTYLE
350
189
  3
LAYEREVAL
350
18D
  3
LAYERNOTIFY
350
18E
  3
LIGHTINGUNITS
350
18C
  3
MSLTSCALE
350
18A
  0
DICTIONARY
  5
17F
102
{ACAD_REACTORS
330
17E
102
}
330
17E
100
AcDbDictionary
281
     1
  0
XRECORD
  5
176
102
{ACAD_REACTORS
330
175
102
}
330
175
100
AcDbXrecord
280
     1
290
     1
  0
XRECORD
  5
178
102
{ACAD_REACTORS
330
177
102
}
330
177
100
AcDbXrecord
280
     1
290
     1
  0
XRECORD
  5
17A
102
{ACAD_REACTORS
330
179
102
}
330
179
100
AcDbXrecord
280
     1
290
     1
  0
XRECORD
  5
223
102
{ACAD_REACTORS
330
222
102
}
330
222
100
AcDbXrecord
280
     1
 90
        1
340
155
  0
XRECORD
  5
228
102
{ACAD_REACTORS
330
227
102
}
330
227
100
AcDbXrecord
280
     1
 90
        1
340
155
  0
ACDBDETAILVIEWSTYLE
  5
16C
102
{ACAD_REACTORS
330
16B
102
}
330
16B
100
AcDbModelDocViewStyle
 70
     0
  3
Imperial24
290
     0
100
AcDbDetailViewStyle
 70
     0
 71
     0
 90
        3
 71
     1
340
17
 62
   256
 40
0.24
340
0
 62
   256
 40
0.24
300

 40
0.36
280
     3
 71
     2
340
13
 90
       25
 62
   256
 71
     3
340
17
 62
   256
 40
0.24
 90
        1
 40
0.75
 90
        1
300
%<\AcVar ViewType \f "%tc1">% %<\AcVar ViewDetailId>%\PSCALE %<\AcVar ViewScale \f "%sn">%
 71
     4
340
13
 90
       25
 62
   256
340
13
 90
       25
 62
   256
280
     0
  0
LAYOUT
  5
16F
102
{ACAD_XDICTIONARY
360
1CE
102
}
102
{ACAD_REACTORS
330
16D
102
}
330
16D
100
AcDbPlotSettings
  1

  2
SHARP MX-2310F
  4
A4
  6

 40
5.027082920074462
 41
5.027099609375
 42
5.027069091796875
 43
5.027069091796875
 44
209.9733276367187
 45
296.9259948730469
 46
0.0
 47
0.0
 48
0.0
 49
0.0
140
0.0
141
0.0
142
1.0
143
77.48307304882286
 70
 11952
 72
     0
 73
     1
 74
     0
  7

 75
     0
147
0.0129060446450013
 76
     0
 77
     2
 78
   300
148
-286534.177802128
149
-206353.2809668892
100
AcDbLayout
  1
Model
 70
     1
 71
     0
 10
0.0
 20
0.0
 11
12.0
 21
9.0
 12
0.0
 22
0.0
 32
0.0
 14
0.0
 24
0.0
 34
0.0
 15
0.0
 25
0.0
 35
0.0
146
0.0
 13
0.0
 23
0.0
 33
0.0
 16
1.0
 26
0.0
 36
0.0
 17
0.0
 27
1.0
 37
0.0
 76
     0
330
A
331
15
1001
ACAD_PSEXT
1000
SHARP MX-2310F
1000
SHARP MX-2310F
1000
192.168.1.222
1000

1070
     0
  0
LAYOUT
  5
170
102
{ACAD_REACTORS
330
16D
102
}
330
16D
100
AcDbPlotSettings
  1

  2
SHARP MX-2310F
  4
A4
  6

 40
5.027082920074462
 41
5.027099609375
 42
5.027069091796875
 43
5.027069091796875
 44
209.9733276367187
 45
296.9259948730469
 46
0.0
 47
0.0
 48
0.0
 49
0.0
140
0.0
141
0.0
142
1.0
143
1.0
 70
   688
 72
     0
 73
     1
 74
     5
  7

 75
    16
147
1.0
 76
     0
 77
     2
 78
   300
148
0.0
149
0.0
100
AcDbLayout
  1
レイアウト1
 70
     0
 71
     1
 10
-0.1979161059762549
 20
-0.1979166503966324
 11
11.4920836921752
 21
8.068749791993869
 12
0.0
 22
0.0
 32
0.0
 14
1.129416638471948
 24
0.7870833686017616
 34
0.0
 15
10.16474974624754
 25
7.083750317415853
 35
0.0
146
0.0
 13
0.0
 23
0.0
 33
0.0
 16
1.0
 26
0.0
 36
0.0
 17
0.0
 27
1.0
 37
0.0
 76
     0
330
B
331
221
1001
ACAD_PSEXT
1000
SHARP MX-2310F
1000
SHARP MX-2310F
1000
192.168.1.222
1000

1070
     0
  0
MATERIAL
  5
128
102
{ACAD_XDICTIONARY
360
129
102
}
102
{ACAD_REACTORS
330
11F
102
}
330
11F
100
AcDbMaterial
  1
ByBlock
 72
     0
 43
0.0208333333333333
 43
0.0
 43
0.0
 43
0.0
 43
0.0
 43
0.0208333333333333
 43
0.0
 43
0.0
 43
0.0
 43
0.0
 43
1.0
 43
0.0
 43
0.0
 43
0.0
 43
0.0
 43
1.0
 77
     0
 47
0.0208333333333333
 47
0.0
 47
0.0
 47
0.0
 47
0.0
 47
0.0208333333333333
 47
0.0
 47
0.0
 47
0.0
 47
0.0
 47
1.0
 47
0.0
 47
0.0
 47
0.0
 47
0.0
 47
1.0
171
     0
 49
0.0208333333333333
 49
0.0
 49
0.0
 49
0.0
 49
0.0
 49
0.0208333333333333
 49
0.0
 49
0.0
 49
0.0
 49
0.0
 49
1.0
 49
0.0
 49
0.0
 49
0.0
 49
0.0
 49
1.0
175
     0
142
0.0208333333333333
142
0.0
142
0.0
142
0.0
142
0.0
142
0.0208333333333333
142
0.0
142
0.0
142
0.0
142
0.0
142
1.0
142
0.0
142
0.0
142
0.0
142
0.0
142
1.0
179
     0
144
0.0208333333333333
144
0.0
144
0.0
144
0.0
144
0.0
144
0.0208333333333333
144
0.0
144
0.0
144
0.0
144
0.0
144
1.0
144
0.0
144
0.0
144
0.0
144
0.0
144
1.0
147
0.0208333333333333
147
0.0
147
0.0
147
0.0
147
0.0
147
0.0208333333333333
147
0.0
147
0.0
147
0.0
147
0.0
147
1.0
147
0.0
147
0.0
147
0.0
147
0.0
147
1.0
  0
MATERIAL
  5
120
102
{ACAD_XDICTIONARY
360
121
102
}
102
{ACAD_REACTORS
330
11F
102
}
330
11F
100
AcDbMaterial
  1
ByLayer
 72
     0
 43
0.0208333333333333
 43
0.0
 43
0.0
 43
0.0
 43
0.0
 43
0.0208333333333333
 43
0.0
 43
0.0
 43
0.0
 43
0.0
 43
1.0
 43
0.0
 43
0.0
 43
0.0
 43
0.0
 43
1.0
 77
     0
 47
0.0208333333333333
 47
0.0
 47
0.0
 47
0.0
 47
0.0
 47
0.0208333333333333
 47
0.0
 47
0.0
 47
0.0
 47
0.0
 47
1.0
 47
0.0
 47
0.0
 47
0.0
 47
0.0
 47
1.0
171
     0
 49
0.0208333333333333
 49
0.0
 49
0.0
 49
0.0
 49
0.0
 49
0.0208333333333333
 49
0.0
 49
0.0
 49
0.0
 49
0.0
 49
1.0
 49
0.0
 49
0.0
 49
0.0
 49
0.0
 49
1.0
175
     0
142
0.0208333333333333
142
0.0
142
0.0
142
0.0
142
0.0
142
0.0208333333333333
142
0.0
142
0.0
142
0.0
142
0.0
142
1.0
142
0.0
142
0.0
142
0.0
142
0.0
142
1.0
179
     0
144
0.0208333333333333
144
0.0
144
0.0
144
0.0
144
0.0
144
0.0208333333333333
144
0.0
144
0.0
144
0.0
144
0.0
144
1.0
144
0.0
144
0.0
144
0.0
144
0.0
144
1.0
147
0.0208333333333333
147
0.0
147
0.0
147
0.0
147
0.0
147
0.0208333333333333
147
0.0
147
0.0
147
0.0
147
0.0
147
1.0
147
0.0
147
0.0
147
0.0
147
0.0
147
1.0
  0
MATERIAL
  5
130
102
{ACAD_XDICTIONARY
360
131
102
}
102
{ACAD_REACTORS
330
11F
102
}
330
11F
100
AcDbMaterial
  1
Global
 72
     0
 43
0.0208333333333333
 43
0.0
 43
0.0
 43
0.0
 43
0.0
 43
0.0208333333333333
 43
0.0
 43
0.0
 43
0.0
 43
0.0
 43
1.0
 43
0.0
 43
0.0
 43
0.0
 43
0.0
 43
1.0
 77
     0
 47
0.0208333333333333
 47
0.0
 47
0.0
 47
0.0
 47
0.0
 47
0.0208333333333333
 47
0.0
 47
0.0
 47
0.0
 47
0.0
 47
1.0
 47
0.0
 47
0.0
 47
0.0
 47
0.0
 47
1.0
171
     0
 49
0.0208333333333333
 49
0.0
 49
0.0
 49
0.0
 49
0.0
 49
0.0208333333333333
 49
0.0
 49
0.0
 49
0.0
 49
0.0
 49
1.0
 49
0.0
 49
0.0
 49
0.0
 49
0.0
 49
1.0
175
     0
142
0.0208333333333333
142
0.0
142
0.0
142
0.0
142
0.0
142
0.0208333333333333
142
0.0
142
0.0
142
0.0
142
0.0
142
1.0
142
0.0
142
0.0
142
0.0
142
0.0
142
1.0
179
     0
144
0.0208333333333333
144
0.0
144
0.0
144
0.0
144
0.0
144
0.0208333333333333
144
0.0
144
0.0
144
0.0
144
0.0
144
1.0
144
0.0
144
0.0
144
0.0
144
0.0
144
1.0
147
0.0208333333333333
147
0.0
147
0.0
147
0.0
147
0.0
147
0.0208333333333333
147
0.0
147
0.0
147
0.0
147
0.0
147
1.0
147
0.0
147
0.0
147
0.0
147
0.0
147
1.0
  0
MLEADERSTYLE
  5
167
102
{ACAD_REACTORS
330
166
102
}
330
166
100
AcDbMLeaderStyle
179
     2
170
     2
171
     1
172
     0
 90
        2
 40
0.0
 41
0.0
173
     1
 91
-1056964608
340
11
 92
       -2
290
     1
 42
0.09
291
     1
 43
0.36
  3
Standard
 44
0.18
300

342
17
174
     1
178
     6
175
     1
176
     0
 93
-1056964608
 45
0.18
292
     0
297
     0
 46
0.18
 94
-1056964608
 47
1.0
 49
1.0
140
1.0
293
     1
141
0.0
294
     1
177
     0
142
1.0
295
     0
296
     0
143
0.125
271
     0
272
     9
273
     9
298
     1
  0
MLINESTYLE
  5
1C
102
{ACAD_REACTORS
330
1B
102
}
330
1B
100
AcDbMlineStyle
  2
STANDARD
 70
     0
  3

 62
     0
 51
90.00000000000019
 52
90.00000000000019
 71
     2
 49
0.5
 62
   256
  6
BYLAYER
 49
-0.5
 62
   256
  6
BYLAYER
  0
ACDBPLACEHOLDER
  5
11E
102
{ACAD_REACTORS
330
11D
102
}
330
11D
  0
SCALE
  5
155
102
{ACAD_REACTORS
330
154
102
}
330
154
100
AcDbScale
 70
     0
300
1:1
140
1.0
141
1.0
290
     1
  0
SCALE
  5
156
102
{ACAD_REACTORS
330
154
102
}
330
154
100
AcDbScale
 70
     0
300
1/128" = 1'-0"
140
0.0078125
141
12.0
290
     0
  0
SCALE
  5
157
102
{ACAD_REACTORS
330
154
102
}
330
154
100
AcDbScale
 70
     0
300
1/64" = 1'-0"
140
0.015625
141
12.0
290
     0
  0
SCALE
  5
158
102
{ACAD_REACTORS
330
154
102
}
330
154
100
AcDbScale
 70
     0
300
1/32" = 1'-0"
140
0.03125
141
12.0
290
     0
  0
SCALE
  5
159
102
{ACAD_REACTORS
330
154
102
}
330
154
100
AcDbScale
 70
     0
300
1/16" = 1'-0"
140
0.0625
141
12.0
290
     0
  0
SCALE
  5
15A
102
{ACAD_REACTORS
330
154
102
}
330
154
100
AcDbScale
 70
     0
300
3/32" = 1'-0"
140
0.09375
141
12.0
290
     0
  0
SCALE
  5
15B
102
{ACAD_REACTORS
330
154
102
}
330
154
100
AcDbScale
 70
     0
300
1/8" = 1'-0"
140
0.125
141
12.0
290
     0
  0
SCALE
  5
15C
102
{ACAD_REACTORS
330
154
102
}
330
154
100
AcDbScale
 70
     0
300
3/16" = 1'-0"
140
0.1875
141
12.0
290
     0
  0
SCALE
  5
15D
102
{ACAD_REACTORS
330
154
102
}
330
154
100
AcDbScale
 70
     0
300
1/4" = 1'-0"
140
0.25
141
12.0
290
     0
  0
SCALE
  5
15E
102
{ACAD_REACTORS
330
154
102
}
330
154
100
AcDbScale
 70
     0
300
3/8" = 1'-0"
140
0.375
141
12.0
290
     0
  0
SCALE
  5
15F
102
{ACAD_REACTORS
330
154
102
}
330
154
100
AcDbScale
 70
     0
300
1/2" = 1'-0"
140
0.5
141
12.0
290
     0
  0
SCALE
  5
160
102
{ACAD_REACTORS
330
154
102
}
330
154
100
AcDbScale
 70
     0
300
3/4" = 1'-0"
140
0.75
141
12.0
290
     0
  0
SCALE
  5
161
102
{ACAD_REACTORS
330
154
102
}
330
154
100
AcDbScale
 70
     0
300
1" = 1'-0"
140
1.0
141
12.0
290
     0
  0
SCALE
  5
162
102
{ACAD_REACTORS
330
154
102
}
330
154
100
AcDbScale
 70
     0
300
1-1/2" = 1'-0"
140
1.5
141
12.0
290
     0
  0
SCALE
  5
163
102
{ACAD_REACTORS
330
154
102
}
330
154
100
AcDbScale
 70
     0
300
3" = 1'-0"
140
3.0
141
12.0
290
     0
  0
SCALE
  5
164
102
{ACAD_REACTORS
330
154
102
}
330
154
100
AcDbScale
 70
     0
300
6" = 1'-0"
140
6.0
141
12.0
290
     0
  0
SCALE
  5
165
102
{ACAD_REACTORS
330
154
102
}
330
154
100
AcDbScale
 70
     0
300
1'-0" = 1'-0"
140
12.0
141
12.0
290
     0
  0
ACDBSECTIONVIEWSTYLE
  5
16A
102
{ACAD_REACTORS
330
168
102
}
330
168
100
AcDbModelDocViewStyle
 70
     0
  3
Imperial24
290
     0
100
AcDbSectionViewStyle
 70
     0
 71
     0
 90
       78
 71
     1
340
17
 62
   256
 40
0.24
340
0
340
0
 62
   256
 40
0.24
300
I, O, Q, S, X, Z
 40
0.48
 90
        3
 40
0.18
 90
        1
 71
     2
340
169
 90
       25
 62
   256
340
13
 90
       50
 62
   256
 40
0.24
 40
0.0
 40
0.24
 71
     3
340
17
 62
   256
 40
0.24
 90
        1
 40
0.75
 90
        1
300
%<\AcVar ViewType \f "%tc1">% %<\AcVar ViewSectionStartId>%-%<\AcVar ViewSectionEndId>%\PSCALE %<\AcVar ViewScale \f "%sn">%
 71
     4
 62
   256
 62
   257
300
ANSI31
 40
1.0
 90
        0
290
     0
290
     0
 90
        6
 40
0.0
 40
1.570796326794896
 40
0.2617993877991494
 40
1.308996938995747
 40
-0.2617993877991494
 40
1.832595714594046
  0
TABLESTYLE
  5
153
102
{ACAD_XDICTIONARY
360
248
102
}
102
{ACAD_REACTORS
330
152
102
}
330
152
100
AcDbTableStyle
280
     0
  3
Standard
 70
     0
 71
     0
 40
0.06
 41
0.06
280
     0
281
     0
  7
STANDARD
140
0.18
170
     2
 62
     0
 63
     7
283
     0
 90
      512
 91
        0
  1

274
    -2
284
     1
 64
     0
275
    -2
285
     1
 65
     0
276
    -2
286
     1
 66
     0
277
    -2
287
     1
 67
     0
278
    -2
288
     1
 68
     0
279
    -2
289
     1
 69
     0
  7
STANDARD
140
0.25
170
     5
 62
     0
 63
     7
283
     0
 90
      512
 91
        0
  1

274
    -2
284
     1
 64
     0
275
    -2
285
     1
 65
     0
276
    -2
286
     1
 66
     0
277
    -2
287
     1
 67
     0
278
    -2
288
     1
 68
     0
279
    -2
289
     1
 69
     0
  7
STANDARD
140
0.18
170
     5
 62
     0
 63
     7
283
     0
 90
      512
 91
        0
  1

274
    -2
284
     1
 64
     0
275
    -2
285
     1
 65
     0
276
    -2
286
     1
 66
     0
277
    -2
287
     1
 67
     0
278
    -2
288
     1
 68
     0
279
    -2
289
     1
 69
     0
  0
VISUALSTYLE
  5
13E
102
{ACAD_REACTORS
330
138
102
}
330
138
100
AcDbVisualStyle
  2
2dWireframe
 70
     4
177
     3
291
     0
 70
    58
 90
        0
176
     1
 90
        2
176
     1
 90
        0
176
     1
 90
        0
176
     1
 40
0.6
176
     1
 40
30.0
176
     1
 62
     7
420
 16777215
176
     1
 90
        1
176
     1
 90
        4
176
     1
 62
     7
176
     1
 62
   257
176
     1
 90
        1
176
     1
 90
        1
176
     1
 40
1.0
176
     1
 90
        0
176
     1
 62
   257
176
     1
 40
1.0
176
     1
 90
        1
176
     1
 90
        6
176
     1
 90
        2
176
     1
 62
     7
176
     1
 90
        5
176
     1
 90
        0
176
     1
 90
        0
176
     1
290
     0
176
     1
 90
        1
176
     1
 40
0.0
176
     1
 90
        0
176
     1
290
     1
176
     1
290
     1
176
     1
290
     0
176
     1
290
     0
176
     1
290
     0
176
     1
290
     0
176
     1
290
     0
176
     1
290
     0
176
     1
290
     0
176
     1
 90
       50
176
     1
 40
0.0
176
     1
 40
1.0
176
     1
 90
        0
176
     1
 62
    18
420
        0
176
     1
 90
       50
176
     1
 90
        3
176
     1
 62
     5
420
      255
176
     1
290
     0
176
     1
 90
       50
176
     1
 90
       50
176
     1
 90
       50
176
     1
290
     0
176
     1
 90
       50
176
     1
 62
   256
176
     0
 40
1.0
176
     0
 90
        2
176
     1
  1
strokes_ogs.tif
176
     1
290
     0
176
     1
 40
1.0
176
     1
 40
1.0
176
     1
  0
VISUALSTYLE
  5
13D
102
{ACAD_REACTORS
330
138
102
}
330
138
100
AcDbVisualStyle
  2
Basic
 70
     7
177
     3
291
     1
 70
    58
 90
        1
176
     1
 90
        0
176
     1
 90
        1
176
     1
 90
        0
176
     1
 40
0.6
176
     1
 40
30.0
176
     1
 62
     7
420
 16777215
176
     1
 90
        0
176
     1
 90
        4
176
     1
 62
     7
176
     1
 62
   257
176
     1
 90
        1
176
     1
 90
        1
176
     1
 40
1.0
176
     1
 90
        8
176
     1
 62
     7
176
     1
 40
1.0
176
     1
 90
        1
176
     1
 90
        6
176
     1
 90
        2
176
     1
 62
     7
176
     1
 90
        5
176
     1
 90
        0
176
     1
 90
        0
176
     1
290
     0
176
     1
 90
        1
176
     1
 40
0.0
176
     1
 90
        0
176
     1
290
     0
176
     1
290
     1
176
     1
290
     1
176
     1
290
     0
176
     1
290
     0
176
     1
290
     0
176
     1
290
     0
176
     1
290
     0
176
     1
290
     0
176
     1
 90
       50
176
     1
 40
0.0
176
     1
 40
1.0
176
     1
 90
        0
176
     1
 62
    18
420
        0
176
     1
 90
       50
176
     1
 90
        3
176
     1
 62
     5
420
      255
176
     1
290
     0
176
     1
 90
       50
176
     1
 90
       50
176
     1
 90
       50
176
     1
290
     0
176
     1
 90
       50
176
     1
 62
   256
176
     0
 40
1.0
176
     0
 90
        2
176
     1
  1
strokes_ogs.tif
176
     1
290
     0
176
     1
 40
1.0
176
     1
 40
1.0
176
     1
  0
VISUALSTYLE
  5
144
102
{ACAD_REACTORS
330
138
102
}
330
138
100
AcDbVisualStyle
  2
Brighten
 70
    12
177
     3
291
     1
 70
    58
 90
        2
176
     1
 90
        2
176
     1
 90
        0
176
     1
 90
        0
176
     1
 40
0.6
176
     1
 40
30.0
176
     1
 62
     7
420
 16777215
176
     1
 90
        1
176
     1
 90
        4
176
     1
 62
     7
176
     1
 62
   257
176
     1
 90
        1
176
     1
 90
        1
176
     1
 40
1.0
176
     1
 90
        8
176
     1
 62
     7
176
     1
 40
1.0
176
     1
 90
        1
176
     1
 90
        6
176
     1
 90
        2
176
     1
 62
     7
176
     1
 90
        5
176
     1
 90
        0
176
     1
 90
        0
176
     1
290
     0
176
     1
 90
        1
176
     1
 40
50.0
176
     1
 90
        0
176
     1
290
     0
176
     1
290
     1
176
     1
290
     1
176
     1
290
     0
176
     1
290
     0
176
     1
290
     0
176
     1
290
     0
176
     1
290
     0
176
     1
290
     0
176
     1
 90
       50
176
     1
 40
0.0
176
     1
 40
1.0
176
     1
 90
        0
176
     1
 62
    18
420
        0
176
     1
 90
       50
176
     1
 90
        3
176
     1
 62
     5
420
      255
176
     1
290
     0
176
     1
 90
       50
176
     1
 90
       50
176
     1
 90
       50
176
     1
290
     0
176
     1
 90
       50
176
     1
 62
   256
176
     0
 40
1.0
176
     0
 90
        2
176
     1
  1
strokes_ogs.tif
176
     1
290
     0
176
     1
 40
1.0
176
     1
 40
1.0
176
     1
  0
VISUALSTYLE
  5
148
102
{ACAD_REACTORS
330
138
102
}
330
138
100
AcDbVisualStyle
  2
ColorChange
 70
    16
177
     3
291
     1
 70
    58
 90
        2
176
     1
 90
        2
176
     1
 90
        3
176
     1
 90
        0
176
     1
 40
0.6
176
     1
 40
30.0
176
     1
 62
     8
420
  8421504
176
     1
 90
        1
176
     1
 90
        4
176
     1
 62
     7
176
     1
 62
   257
176
     1
 90
        1
176
     1
 90
        1
176
     1
 40
1.0
176
     1
 90
        8
176
     1
 62
     8
420
  8421504
176
     1
 40
1.0
176
     1
 90
        1
176
     1
 90
        6
176
     1
 90
        2
176
     1
 62
     7
176
     1
 90
        5
176
     1
 90
        0
176
     1
 90
        0
176
     1
290
     0
176
     1
 90
        1
176
     1
 40
0.0
176
     1
 90
        0
176
     1
290
     0
176
     1
290
     1
176
     1
290
     1
176
     1
290
     0
176
     1
290
     0
176
     1
290
     0
176
     1
290
     0
176
     1
290
     0
176
     1
290
     0
176
     1
 90
       50
176
     1
 40
0.0
176
     1
 40
1.0
176
     1
 90
        0
176
     1
 62
    18
420
        0
176
     1
 90
       50
176
     1
 90
        3
176
     1
 62
     5
420
      255
176
     1
290
     0
176
     1
 90
       50
176
     1
 90
       50
176
     1
 90
       50
176
     1
290
     0
176
     1
 90
       50
176
     1
 62
   256
176
     0
 40
1.0
176
     0
 90
        2
176
     1
  1
strokes_ogs.tif
176
     1
290
     0
176
     1
 40
1.0
176
     1
 40
1.0
176
     1
  0
VISUALSTYLE
  5
141
102
{ACAD_REACTORS
330
138
102
}
330
138
100
AcDbVisualStyle
  2
Conceptual
 70
     9
177
     3
291
     0
 70
    58
 90
        3
176
     1
 90
        2
176
     1
 90
        0
176
     1
 90
        0
176
     1
 40
0.6
176
     1
 40
30.0
176
     1
 62
     7
420
 16777215
176
     1
 90
        2
176
     1
 90
        2
176
     1
 62
     7
176
     1
 62
   257
176
     1
 90
        1
176
     1
 90
        1
176
     1
 40
179.0
176
     1
 90
        8
176
     1
 62
     7
176
     1
 40
1.0
176
     1
 90
        1
176
     1
 90
        6
176
     1
 90
        2
176
     1
 62
     7
176
     1
 90
        3
176
     1
 90
        0
176
     1
 90
        0
176
     1
290
     0
176
     1
 90
        1
176
     1
 40
0.0
176
     1
 90
        0
176
     1
290
     0
176
     1
290
     1
176
     1
290
     1
176
     1
290
     0
176
     1
290
     0
176
     1
290
     0
176
     1
290
     0
176
     1
290
     0
176
     1
290
     0
176
     1
 90
       50
176
     1
 40
0.0
176
     1
 40
1.0
176
     1
 90
        0
176
     1
 62
    18
420
        0
176
     1
 90
       50
176
     1
 90
        3
176
     1
 62
     5
420
      255
176
     1
290
     0
176
     1
 90
       50
176
     1
 90
       50
176
     1
 90
       50
176
     1
290
     0
176
     1
 90
       50
176
     1
 62
   256
176
     0
 40
1.0
176
     0
 90
        2
176
     1
  1
strokes_ogs.tif
176
     1
290
     0
176
     1
 40
1.0
176
     1
 40
1.0
176
     1
  0
VISUALSTYLE
  5
143
102
{ACAD_REACTORS
330
138
102
}
330
138
100
AcDbVisualStyle
  2
Dim
 70
    11
177
     3
291
     1
 70
    58
 90
        2
176
     1
 90
        2
176
     1
 90
        0
176
     1
 90
        0
176
     1
 40
0.6
176
     1
 40
30.0
176
     1
 62
     7
420
 16777215
176
     1
 90
        1
176
     1
 90
        4
176
     1
 62
     7
176
     1
 62
   257
176
     1
 90
        1
176
     1
 90
        1
176
     1
 40
1.0
176
     1
 90
        8
176
     1
 62
     7
176
     1
 40
1.0
176
     1
 90
        1
176
     1
 90
        6
176
     1
 90
        2
176
     1
 62
     7
176
     1
 90
        5
176
     1
 90
        0
176
     1
 90
        0
176
     1
290
     0
176
     1
 90
        1
176
     1
 40
-50.0
176
     1
 90
        0
176
     1
290
     0
176
     1
290
     1
176
     1
290
     1
176
     1
290
     0
176
     1
290
     0
176
     1
290
     0
176
     1
290
     0
176
     1
290
     0
176
     1
290
     0
176
     1
 90
       50
176
     1
 40
0.0
176
     1
 40
1.0
176
     1
 90
        0
176
     1
 62
    18
420
        0
176
     1
 90
       50
176
     1
 90
        3
176
     1
 62
     5
420
      255
176
     1
290
     0
176
     1
 90
       50
176
     1
 90
       50
176
     1
 90
       50
176
     1
290
     0
176
     1
 90
       50
176
     1
 62
   256
176
     0
 40
1.0
176
     0
 90
        2
176
     1
  1
strokes_ogs.tif
176
     1
290
     0
176
     1
 40
1.0
176
     1
 40
1.0
176
     1
  0
VISUALSTYLE
  5
150
102
{ACAD_REACTORS
330
138
102
}
330
138
100
AcDbVisualStyle
  2
EdgeColorOff
 70
    22
177
     3
291
     1
 70
    58
 90
        2
176
     0
 90
        2
176
     0
 90
        0
176
     0
 90
        0
176
     0
 40
0.6
176
     0
 40
30.0
176
     0
 62
     7
420
 16777215
176
     0
 90
        1
176
     0
 90
        4
176
     0
 62
     7
176
     0
 62
   257
176
     0
 90
        1
176
     0
 90
        1
176
     0
 40
1.0
176
     0
 90
        8
176
     2
 62
     7
176
     0
 40
1.0
176
     0
 90
        1
176
     0
 90
        6
176
     0
 90
        2
176
     0
 62
     7
176
     0
 90
        5
176
     0
 90
        0
176
     0
 90
        0
176
     0
290
     0
176
     0
 90
        1
176
     0
 40
0.0
176
     0
 90
        0
176
     0
290
     0
176
     0
290
     1
176
     0
290
     1
176
     0
290
     0
176
     0
290
     0
176
     0
290
     0
176
     0
290
     0
176
     0
290
     0
176
     0
290
     0
176
     0
 90
       50
176
     0
 40
0.0
176
     0
 40
1.0
176
     0
 90
        0
176
     0
 62
    18
420
        0
176
     0
 90
       50
176
     0
 90
        3
176
     0
 62
     5
420
      255
176
     0
290
     0
176
     0
 90
       50
176
     0
 90
       50
176
     0
 90
       50
176
     0
290
     0
176
     0
 90
       50
176
     0
 62
   256
176
     0
 40
1.0
176
     0
 90
        2
176
     0
  1
strokes_ogs.tif
176
     0
290
     0
176
     0
 40
1.0
176
     0
 40
1.0
176
     0
  0
VISUALSTYLE
  5
147
102
{ACAD_REACTORS
330
138
102
}
330
138
100
AcDbVisualStyle
  2
Facepattern
 70
    15
177
     3
291
     1
 70
    58
 90
        2
176
     1
 90
        2
176
     1
 90
        0
176
     1
 90
        0
176
     1
 40
0.6
176
     1
 40
30.0
176
     1
 62
     7
420
 16777215
176
     1
 90
        1
176
     1
 90
        4
176
     1
 62
     7
176
     1
 62
   257
176
     1
 90
        1
176
     1
 90
        1
176
     1
 40
1.0
176
     1
 90
        8
176
     1
 62
     7
176
     1
 40
1.0
176
     1
 90
        1
176
     1
 90
        6
176
     1
 90
        2
176
     1
 62
     7
176
     1
 90
        5
176
     1
 90
        0
176
     1
 90
        0
176
     1
290
     0
176
     1
 90
        1
176
     1
 40
0.0
176
     1
 90
        0
176
     1
290
     0
176
     1
290
     1
176
     1
290
     1
176
     1
290
     0
176
     1
290
     0
176
     1
290
     0
176
     1
290
     0
176
     1
290
     0
176
     1
290
     0
176
     1
 90
       50
176
     1
 40
0.0
176
     1
 40
1.0
176
     1
 90
        0
176
     1
 62
    18
420
        0
176
     1
 90
       50
176
     1
 90
        3
176
     1
 62
     5
420
      255
176
     1
290
     0
176
     1
 90
       50
176
     1
 90
       50
176
     1
 90
       50
176
     1
290
     0
176
     1
 90
       50
176
     1
 62
   256
176
     0
 40
1.0
176
     0
 90
        2
176
     1
  1
strokes_ogs.tif
176
     1
290
     0
176
     1
 40
1.0
176
     1
 40
1.0
176
     1
  0
VISUALSTYLE
  5
139
102
{ACAD_REACTORS
330
138
102
}
330
138
100
AcDbVisualStyle
  2
Flat
 70
     0
177
     3
291
     1
 70
    58
 90
        2
176
     1
 90
        1
176
     1
 90
        1
176
     1
 90
        2
176
     1
 40
0.6
176
     1
 40
30.0
176
     1
 62
     7
420
 16777215
176
     1
 90
        0
176
     1
 90
        0
176
     1
 62
     7
176
     1
 62
   257
176
     1
 90
        1
176
     1
 90
        1
176
     1
 40
1.0
176
     1
 90
        8
176
     1
 62
     7
176
     1
 40
1.0
176
     1
 90
        1
176
     1
 90
        6
176
     1
 90
        2
176
     1
 62
     7
176
     1
 90
        5
176
     1
 90
        0
176
     1
 90
        0
176
     1
290
     0
176
     1
 90
       13
176
     1
 40
0.0
176
     1
 90
        0
176
     1
290
     0
176
     1
290
     1
176
     1
290
     1
176
     1
290
     0
176
     1
290
     0
176
     1
290
     0
176
     1
290
     0
176
     1
290
     0
176
     1
290
     0
176
     1
 90
       50
176
     1
 40
0.0
176
     1
 40
1.0
176
     1
 90
        0
176
     1
 62
    18
420
        0
176
     1
 90
       50
176
     1
 90
        3
176
     1
 62
     5
420
      255
176
     1
290
     0
176
     1
 90
       50
176
     1
 90
       50
176
     1
 90
       50
176
     1
290
     0
176
     1
 90
       50
176
     1
 62
   256
176
     0
 40
1.0
176
     0
 90
        2
176
     1
  1
strokes_ogs.tif
176
     1
290
     0
176
     1
 40
1.0
176
     1
 40
1.0
176
     1
  0
VISUALSTYLE
  5
13A
102
{ACAD_REACTORS
330
138
102
}
330
138
100
AcDbVisualStyle
  2
FlatWithEdges
 70
     1
177
     3
291
     1
 70
    58
 90
        2
176
     1
 90
        1
176
     1
 90
        1
176
     1
 90
        2
176
     1
 40
0.6
176
     1
 40
30.0
176
     1
 62
     7
420
 16777215
176
     1
 90
        1
176
     1
 90
        0
176
     1
 62
     7
176
     1
 62
   257
176
     1
 90
        1
176
     1
 90
        1
176
     1
 40
1.0
176
     1
 90
        0
176
     1
 62
   257
176
     1
 40
1.0
176
     1
 90
        1
176
     1
 90
        6
176
     1
 90
        2
176
     1
 62
     7
176
     1
 90
        5
176
     1
 90
        0
176
     1
 90
        0
176
     1
290
     0
176
     1
 90
       13
176
     1
 40
0.0
176
     1
 90
        0
176
     1
290
     0
176
     1
290
     1
176
     1
290
     1
176
     1
290
     0
176
     1
290
     0
176
     1
290
     0
176
     1
290
     0
176
     1
290
     0
176
     1
290
     0
176
     1
 90
       50
176
     1
 40
0.0
176
     1
 40
1.0
176
     1
 90
        0
176
     1
 62
    18
420
        0
176
     1
 90
       50
176
     1
 90
        3
176
     1
 62
     5
420
      255
176
     1
290
     0
176
     1
 90
       50
176
     1
 90
       50
176
     1
 90
       50
176
     1
290
     0
176
     1
 90
       50
176
     1
 62
   256
176
     0
 40
1.0
176
     0
 90
        2
176
     1
  1
strokes_ogs.tif
176
     1
290
     0
176
     1
 40
1.0
176
     1
 40
1.0
176
     1
  0
VISUALSTYLE
  5
13B
102
{ACAD_REACTORS
330
138
102
}
330
138
100
AcDbVisualStyle
  2
Gouraud
 70
     2
177
     3
291
     1
 70
    58
 90
        2
176
     1
 90
        2
176
     1
 90
        1
176
     1
 90
        2
176
     1
 40
0.6
176
     1
 40
30.0
176
     1
 62
     7
420
 16777215
176
     1
 90
        0
176
     1
 90
        0
176
     1
 62
     7
176
     1
 62
   257
176
     1
 90
        1
176
     1
 90
        1
176
     1
 40
1.0
176
     1
 90
        0
176
     1
 62
     7
176
     1
 40
1.0
176
     1
 90
        1
176
     1
 90
        6
176
     1
 90
        2
176
     1
 62
     7
176
     1
 90
        5
176
     1
 90
        0
176
     1
 90
        0
176
     1
290
     0
176
     1
 90
       13
176
     1
 40
0.0
176
     1
 90
        0
176
     1
290
     0
176
     1
290
     1
176
     1
290
     1
176
     1
290
     0
176
     1
290
     0
176
     1
290
     0
176
     1
290
     0
176
     1
290
     0
176
     1
290
     0
176
     1
 90
       50
176
     1
 40
0.0
176
     1
 40
1.0
176
     1
 90
        0
176
     1
 62
    18
420
        0
176
     1
 90
       50
176
     1
 90
        3
176
     1
 62
     5
420
      255
176
     1
290
     0
176
     1
 90
       50
176
     1
 90
       50
176
     1
 90
       50
176
     1
290
     0
176
     1
 90
       50
176
     1
 62
   256
176
     0
 40
1.0
176
     0
 90
        2
176
     1
  1
strokes_ogs.tif
176
     1
290
     0
176
     1
 40
1.0
176
     1
 40
1.0
176
     1
  0
VISUALSTYLE
  5
13C
102
{ACAD_REACTORS
330
138
102
}
330
138
100
AcDbVisualStyle
  2
GouraudWithEdges
 70
     3
177
     3
291
     1
 70
    58
 90
        2
176
     1
 90
        2
176
     1
 90
        1
176
     1
 90
        2
176
     1
 40
0.6
176
     1
 40
30.0
176
     1
 62
     7
420
 16777215
176
     1
 90
        1
176
     1
 90
        0
176
     1
 62
     7
176
     1
 62
   257
176
     1
 90
        1
176
     1
 90
        1
176
     1
 40
1.0
176
     1
 90
        0
176
     1
 62
   257
176
     1
 40
1.0
176
     1
 90
        1
176
     1
 90
        6
176
     1
 90
        2
176
     1
 62
     7
176
     1
 90
        5
176
     1
 90
        0
176
     1
 90
        0
176
     1
290
     0
176
     1
 90
       13
176
     1
 40
0.0
176
     1
 90
        0
176
     1
290
     0
176
     1
290
     1
176
     1
290
     1
176
     1
290
     0
176
     1
290
     0
176
     1
290
     0
176
     1
290
     0
176
     1
290
     0
176
     1
290
     0
176
     1
 90
       50
176
     1
 40
0.0
176
     1
 40
1.0
176
     1
 90
        0
176
     1
 62
    18
420
        0
176
     1
 90
       50
176
     1
 90
        3
176
     1
 62
     5
420
      255
176
     1
290
     0
176
     1
 90
       50
176
     1
 90
       50
176
     1
 90
       50
176
     1
290
     0
176
     1
 90
       50
176
     1
 62
   256
176
     0
 40
1.0
176
     0
 90
        2
176
     1
  1
strokes_ogs.tif
176
     1
290
     0
176
     1
 40
1.0
176
     1
 40
1.0
176
     1
  0
VISUALSTYLE
  5
140
102
{ACAD_REACTORS
330
138
102
}
330
138
100
AcDbVisualStyle
  2
Hidden
 70
     6
177
     3
291
     0
 70
    58
 90
        1
176
     1
 90
        2
176
     1
 90
        2
176
     1
 90
        0
176
     1
 40
0.6
176
     1
 40
30.0
176
     1
 62
     7
420
 16777215
176
     1
 90
        2
176
     1
 90
        2
176
     1
 62
     7
176
     1
 62
   257
176
     1
 90
        2
176
     1
 90
        1
176
     1
 40
40.0
176
     1
 90
        0
176
     1
 62
   257
176
     1
 40
1.0
176
     1
 90
        1
176
     1
 90
        6
176
     1
 90
        2
176
     1
 62
     7
176
     1
 90
        3
176
     1
 90
        0
176
     1
 90
        0
176
     1
290
     0
176
     1
 90
        1
176
     1
 40
0.0
176
     1
 90
        0
176
     1
290
     0
176
     1
290
     1
176
     1
290
     1
176
     1
290
     0
176
     1
290
     0
176
     1
290
     0
176
     1
290
     0
176
     1
290
     0
176
     1
290
     0
176
     1
 90
       50
176
     1
 40
0.0
176
     1
 40
1.0
176
     1
 90
        0
176
     1
 62
    18
420
        0
176
     1
 90
       50
176
     1
 90
        3
176
     1
 62
     5
420
      255
176
     1
290
     0
176
     1
 90
       50
176
     1
 90
       50
176
     1
 90
       50
176
     1
290
     0
176
     1
 90
       50
176
     1
 62
   256
176
     0
 40
1.0
176
     0
 90
        2
176
     1
  1
strokes_ogs.tif
176
     1
290
     0
176
     1
 40
1.0
176
     1
 40
1.0
176
     1
  0
VISUALSTYLE
  5
14E
102
{ACAD_REACTORS
330
138
102
}
330
138
100
AcDbVisualStyle
  2
JitterOff
 70
    20
177
     3
291
     1
 70
    58
 90
        2
176
     0
 90
        2
176
     0
 90
        0
176
     0
 90
        0
176
     0
 40
0.6
176
     0
 40
30.0
176
     0
 62
     7
420
 16777215
176
     0
 90
        1
176
     0
 90
        4
176
     0
 62
     7
176
     0
 62
   257
176
     0
 90
        1
176
     0
 90
        1
176
     0
 40
1.0
176
     0
 90
       10
176
     2
 62
     7
176
     0
 40
1.0
176
     0
 90
        1
176
     0
 90
        6
176
     0
 90
        2
176
     0
 62
     7
176
     0
 90
        5
176
     0
 90
        0
176
     0
 90
        0
176
     0
290
     0
176
     0
 90
        1
176
     0
 40
0.0
176
     0
 90
        0
176
     0
290
     0
176
     0
290
     1
176
     0
290
     1
176
     0
290
     0
176
     0
290
     0
176
     0
290
     0
176
     0
290
     0
176
     0
290
     0
176
     0
290
     0
176
     0
 90
       50
176
     0
 40
0.0
176
     0
 40
1.0
176
     0
 90
        0
176
     0
 62
    18
420
        0
176
     0
 90
       50
176
     0
 90
        3
176
     0
 62
     5
420
      255
176
     0
290
     0
176
     0
 90
       50
176
     0
 90
       50
176
     0
 90
       50
176
     0
290
     0
176
     0
 90
       50
176
     0
 62
   256
176
     0
 40
1.0
176
     0
 90
        2
176
     0
  1
strokes_ogs.tif
176
     0
290
     0
176
     0
 40
1.0
176
     0
 40
1.0
176
     0
  0
VISUALSTYLE
  5
146
102
{ACAD_REACTORS
330
138
102
}
330
138
100
AcDbVisualStyle
  2
Linepattern
 70
    14
177
     3
291
     1
 70
    58
 90
        2
176
     1
 90
        2
176
     1
 90
        0
176
     1
 90
        0
176
     1
 40
0.6
176
     1
 40
30.0
176
     1
 62
     7
420
 16777215
176
     1
 90
        1
176
     1
 90
        4
176
     1
 62
     7
176
     1
 62
   257
176
     1
 90
        7
176
     1
 90
        7
176
     1
 40
1.0
176
     1
 90
        8
176
     1
 62
     7
176
     1
 40
1.0
176
     1
 90
        1
176
     1
 90
        6
176
     1
 90
        2
176
     1
 62
     7
176
     1
 90
        5
176
     1
 90
        0
176
     1
 90
        0
176
     1
290
     0
176
     1
 90
        1
176
     1
 40
0.0
176
     1
 90
        0
176
     1
290
     0
176
     1
290
     1
176
     1
290
     1
176
     1
290
     0
176
     1
290
     0
176
     1
290
     0
176
     1
290
     0
176
     1
290
     0
176
     1
290
     0
176
     1
 90
       50
176
     1
 40
0.0
176
     1
 40
1.0
176
     1
 90
        0
176
     1
 62
    18
420
        0
176
     1
 90
       50
176
     1
 90
        3
176
     1
 62
     5
420
      255
176
     1
290
     0
176
     1
 90
       50
176
     1
 90
       50
176
     1
 90
       50
176
     1
290
     0
176
     1
 90
       50
176
     1
 62
   256
176
     0
 40
1.0
176
     0
 90
        2
176
     1
  1
strokes_ogs.tif
176
     1
290
     0
176
     1
 40
1.0
176
     1
 40
1.0
176
     1
  0
VISUALSTYLE
  5
14F
102
{ACAD_REACTORS
330
138
102
}
330
138
100
AcDbVisualStyle
  2
OverhangOff
 70
    21
177
     3
291
     1
 70
    58
 90
        2
176
     0
 90
        2
176
     0
 90
        0
176
     0
 90
        0
176
     0
 40
0.6
176
     0
 40
30.0
176
     0
 62
     7
420
 16777215
176
     0
 90
        1
176
     0
 90
        4
176
     0
 62
     7
176
     0
 62
   257
176
     0
 90
        1
176
     0
 90
        1
176
     0
 40
1.0
176
     0
 90
        9
176
     2
 62
     7
176
     0
 40
1.0
176
     0
 90
        1
176
     0
 90
        6
176
     0
 90
        2
176
     0
 62
     7
176
     0
 90
        5
176
     0
 90
        0
176
     0
 90
        0
176
     0
290
     0
176
     0
 90
        1
176
     0
 40
0.0
176
     0
 90
        0
176
     0
290
     0
176
     0
290
     1
176
     0
290
     1
176
     0
290
     0
176
     0
290
     0
176
     0
290
     0
176
     0
290
     0
176
     0
290
     0
176
     0
290
     0
176
     0
 90
       50
176
     0
 40
0.0
176
     0
 40
1.0
176
     0
 90
        0
176
     0
 62
    18
420
        0
176
     0
 90
       50
176
     0
 90
        3
176
     0
 62
     5
420
      255
176
     0
290
     0
176
     0
 90
       50
176
     0
 90
       50
176
     0
 90
       50
176
     0
290
     0
176
     0
 90
       50
176
     0
 62
   256
176
     0
 40
1.0
176
     0
 90
        2
176
     0
  1
strokes_ogs.tif
176
     0
290
     0
176
     0
 40
1.0
176
     0
 40
1.0
176
     0
  0
VISUALSTYLE
  5
142
102
{ACAD_REACTORS
330
138
102
}
330
138
100
AcDbVisualStyle
  2
Realistic
 70
     8
177
     3
291
     0
 70
    58
 90
        2
176
     1
 90
        3
176
     1
 90
        0
176
     1
 90
        2
176
     1
 40
0.6
176
     1
 40
30.0
176
     1
 62
     7
420
 16777215
176
     1
 90
        0
176
     1
 90
        0
176
     1
 62
     7
176
     1
 62
   257
176
     1
 90
        1
176
     1
 90
        1
176
     1
 40
1.0
176
     1
 90
        8
176
     1
 62
   257
176
     1
 40
1.0
176
     1
 90
        1
176
     1
 90
        6
176
     1
 90
        2
176
     1
 62
     7
176
     1
 90
        3
176
     1
 90
        0
176
     1
 90
        0
176
     1
290
     0
176
     1
 90
       13
176
     1
 40
0.0
176
     1
 90
        0
176
     1
290
     0
176
     1
290
     1
176
     1
290
     1
176
     1
290
     0
176
     1
290
     0
176
     1
290
     0
176
     1
290
     0
176
     1
290
     0
176
     1
290
     0
176
     1
 90
       50
176
     1
 40
0.0
176
     1
 40
1.0
176
     1
 90
        0
176
     1
 62
    18
420
        0
176
     1
 90
       50
176
     1
 90
        3
176
     1
 62
     5
420
      255
176
     1
290
     0
176
     1
 90
       50
176
     1
 90
       50
176
     1
 90
       50
176
     1
290
     0
176
     1
 90
       50
176
     1
 62
   256
176
     0
 40
1.0
176
     0
 90
        2
176
     1
  1
strokes_ogs.tif
176
     1
290
     0
176
     1
 40
1.0
176
     1
 40
1.0
176
     1
  0
VISUALSTYLE
  5
14D
102
{ACAD_REACTORS
330
138
102
}
330
138
100
AcDbVisualStyle
  2
Shaded
 70
    27
177
     3
291
     0
 70
    58
 90
        2
176
     1
 90
        2
176
     1
 90
        1
176
     1
 90
        2
176
     1
 40
0.6
176
     1
 40
30.0
176
     1
 62
     7
420
 16777215
176
     1
 90
        0
176
     1
 90
        4
176
     1
 62
     7
176
     1
 62
   257
176
     1
 90
        1
176
     1
 90
        1
176
     1
 40
1.0
176
     1
 90
        8
176
     1
 62
   257
176
     1
 40
1.0
176
     1
 90
        1
176
     1
 90
        6
176
     1
 90
        2
176
     1
 62
     8
420
  7895160
176
     1
 90
        3
176
     1
 90
        0
176
     1
 90
        0
176
     1
290
     0
176
     1
 90
        5
176
     1
 40
0.0
176
     1
 90
        0
176
     1
290
     0
176
     1
290
     1
176
     1
290
     1
176
     1
290
     0
176
     1
290
     0
176
     1
290
     0
176
     1
290
     0
176
     1
290
     0
176
     1
290
     0
176
     1
 90
       50
176
     1
 40
0.0
176
     1
 40
1.0
176
     1
 90
        0
176
     1
 62
    18
420
        0
176
     1
 90
       50
176
     1
 90
        3
176
     1
 62
     5
420
      255
176
     1
290
     0
176
     1
 90
       50
176
     1
 90
       50
176
     1
 90
       50
176
     1
290
     0
176
     1
 90
       50
176
     1
 62
   256
176
     0
 40
1.0
176
     0
 90
        2
176
     1
  1
strokes_ogs.tif
176
     1
290
     0
176
     1
 40
1.0
176
     1
 40
1.0
176
     1
  0
VISUALSTYLE
  5
14C
102
{ACAD_REACTORS
330
138
102
}
330
138
100
AcDbVisualStyle
  2
Shaded with edges
 70
    26
177
     3
291
     0
 70
    58
 90
        2
176
     1
 90
        2
176
     1
 90
        1
176
     1
 90
        2
176
     1
 40
0.6
176
     1
 40
30.0
176
     1
 62
     7
420
 16777215
176
     1
 90
        1
176
     1
 90
       10
176
     1
 62
     7
176
     1
 62
   257
176
     1
 90
        2
176
     1
 90
        1
176
     1
 40
1.0
176
     1
 90
        8
176
     1
 62
   257
176
     1
 40
1.0
176
     1
 90
        1
176
     1
 90
        6
176
     1
 90
        2
176
     1
 62
     7
176
     1
 90
        3
176
     1
 90
        0
176
     1
 90
        0
176
     1
290
     0
176
     1
 90
        5
176
     1
 40
0.0
176
     1
 90
        0
176
     1
290
     0
176
     1
290
     1
176
     1
290
     1
176
     1
290
     0
176
     1
290
     0
176
     1
290
     0
176
     1
290
     0
176
     1
290
     0
176
     1
290
     0
176
     1
 90
       50
176
     1
 40
0.0
176
     1
 40
1.0
176
     1
 90
        0
176
     1
 62
    18
420
        0
176
     1
 90
       50
176
     1
 90
        3
176
     1
 62
     5
420
      255
176
     1
290
     0
176
     1
 90
       50
176
     1
 90
       50
176
     1
 90
       50
176
     1
290
     0
176
     1
 90
       50
176
     1
 62
   256
176
     0
 40
1.0
176
     0
 90
        2
176
     1
  1
strokes_ogs.tif
176
     1
290
     0
176
     1
 40
1.0
176
     1
 40
1.0
176
     1
  0
VISUALSTYLE
  5
149
102
{ACAD_REACTORS
330
138
102
}
330
138
100
AcDbVisualStyle
  2
Shades of Gray
 70
    23
177
     3
291
     0
 70
    58
 90
        2
176
     1
 90
        2
176
     1
 90
        3
176
     1
 90
        0
176
     1
 40
0.6
176
     1
 40
30.0
176
     1
 62
     7
420
 16777215
176
     1
 90
        2
176
     1
 90
        2
176
     1
 62
     7
176
     1
 62
     7
176
     1
 90
        1
176
     1
 90
        1
176
     1
 40
40.0
176
     1
 90
        8
176
     1
 62
     7
176
     1
 40
1.0
176
     1
 90
        1
176
     1
 90
        6
176
     1
 90
        2
176
     1
 62
     7
176
     1
 90
        3
176
     1
 90
        0
176
     1
 90
        0
176
     1
290
     0
176
     1
 90
        1
176
     1
 40
0.0
176
     1
 90
        0
176
     1
290
     0
176
     1
290
     1
176
     1
290
     1
176
     1
290
     0
176
     1
290
     0
176
     1
290
     0
176
     1
290
     0
176
     1
290
     0
176
     1
290
     0
176
     1
 90
       50
176
     1
 40
0.0
176
     1
 40
1.0
176
     1
 90
        0
176
     1
 62
    18
420
        0
176
     1
 90
       50
176
     1
 90
        3
176
     1
 62
     5
420
      255
176
     1
290
     0
176
     1
 90
       50
176
     1
 90
       50
176
     1
 90
       50
176
     1
290
     0
176
     1
 90
       50
176
     1
 62
   256
176
     0
 40
1.0
176
     0
 90
        2
176
     1
  1
strokes_ogs.tif
176
     1
290
     0
176
     1
 40
1.0
176
     1
 40
1.0
176
     1
  0
VISUALSTYLE
  5
14A
102
{ACAD_REACTORS
330
138
102
}
330
138
100
AcDbVisualStyle
  2
Sketchy
 70
    24
177
     3
291
     0
 70
    58
 90
        1
176
     1
 90
        2
176
     1
 90
        2
176
     1
 90
        0
176
     1
 40
0.6
176
     1
 40
30.0
176
     1
 62
     7
420
 16777215
176
     1
 90
        2
176
     1
 90
        2
176
     1
 62
     7
176
     1
 62
     7
176
     1
 90
        1
176
     1
 90
        1
176
     1
 40
40.0
176
     1
 90
       11
176
     1
 62
     7
176
     1
 40
1.0
176
     1
 90
        1
176
     1
 90
        6
176
     1
 90
        2
176
     1
 62
     7
176
     1
 90
        6
176
     1
 90
        0
176
     1
 90
        0
176
     1
290
     0
176
     1
 90
        1
176
     1
 40
0.0
176
     1
 90
        0
176
     1
290
     0
176
     1
290
     1
176
     1
290
     1
176
     1
290
     0
176
     1
290
     0
176
     1
290
     0
176
     1
290
     0
176
     1
290
     0
176
     1
290
     0
176
     1
 90
       50
176
     1
 40
0.0
176
     1
 40
1.0
176
     1
 90
        0
176
     1
 62
    18
420
        0
176
     1
 90
       50
176
     1
 90
        3
176
     1
 62
     5
420
      255
176
     1
290
     0
176
     1
 90
       50
176
     1
 90
       50
176
     1
 90
       50
176
     1
290
     0
176
     1
 90
       50
176
     1
 62
   256
176
     0
 40
1.0
176
     0
 90
        2
176
     1
  1
strokes_ogs.tif
176
     1
290
     0
176
     1
 40
1.0
176
     1
 40
1.0
176
     1
  0
VISUALSTYLE
  5
145
102
{ACAD_REACTORS
330
138
102
}
330
138
100
AcDbVisualStyle
  2
Thicken
 70
    13
177
     3
291
     1
 70
    58
 90
        2
176
     1
 90
        2
176
     1
 90
        0
176
     1
 90
        0
176
     1
 40
0.6
176
     1
 40
30.0
176
     1
 62
     7
420
 16777215
176
     1
 90
        1
176
     1
 90
        4
176
     1
 62
     7
176
     1
 62
   257
176
     1
 90
        1
176
     1
 90
        1
176
     1
 40
1.0
176
     1
 90
       12
176
     1
 62
     7
176
     1
 40
1.0
176
     1
 90
        1
176
     1
 90
        6
176
     1
 90
        2
176
     1
 62
     7
176
     1
 90
        5
176
     1
 90
        0
176
     1
 90
        0
176
     1
290
     0
176
     1
 90
        1
176
     1
 40
0.0
176
     1
 90
        0
176
     1
290
     0
176
     1
290
     1
176
     1
290
     1
176
     1
290
     0
176
     1
290
     0
176
     1
290
     0
176
     1
290
     0
176
     1
290
     0
176
     1
290
     0
176
     1
 90
       50
176
     1
 40
0.0
176
     1
 40
1.0
176
     1
 90
        0
176
     1
 62
    18
420
        0
176
     1
 90
       50
176
     1
 90
        3
176
     1
 62
     5
420
      255
176
     1
290
     0
176
     1
 90
       50
176
     1
 90
       50
176
     1
 90
       50
176
     1
290
     0
176
     1
 90
       50
176
     1
 62
   256
176
     0
 40
1.0
176
     0
 90
        2
176
     1
  1
strokes_ogs.tif
176
     1
290
     0
176
     1
 40
1.0
176
     1
 40
1.0
176
     1
  0
VISUALSTYLE
  5
13F
102
{ACAD_REACTORS
330
138
102
}
330
138
100
AcDbVisualStyle
  2
Wireframe
 70
     5
177
     3
291
     0
 70
    58
 90
        0
176
     1
 90
        2
176
     1
 90
        0
176
     1
 90
        0
176
     1
 40
0.6
176
     1
 40
30.0
176
     1
 62
     7
420
 16777215
176
     1
 90
        1
176
     1
 90
        4
176
     1
 62
     7
176
     1
 62
   257
176
     1
 90
        1
176
     1
 90
        1
176
     1
 40
1.0
176
     1
 90
        0
176
     1
 62
   257
176
     1
 40
1.0
176
     1
 90
        1
176
     1
 90
        6
176
     1
 90
        2
176
     1
 62
     7
176
     1
 90
        3
176
     1
 90
        0
176
     1
 90
        0
176
     1
290
     0
176
     1
 90
        1
176
     1
 40
0.0
176
     1
 90
        0
176
     1
290
     0
176
     1
290
     1
176
     1
290
     1
176
     1
290
     0
176
     1
290
     0
176
     1
290
     0
176
     1
290
     0
176
     1
290
     0
176
     1
290
     0
176
     1
 90
       50
176
     1
 40
0.0
176
     1
 40
1.0
176
     1
 90
        0
176
     1
 62
    18
420
        0
176
     1
 90
       50
176
     1
 90
        3
176
     1
 62
     5
420
      255
176
     1
290
     0
176
     1
 90
       50
176
     1
 90
       50
176
     1
 90
       50
176
     1
290
     0
176
     1
 90
       50
176
     1
 62
   256
176
     0
 40
1.0
176
     0
 90
        2
176
     1
  1
strokes_ogs.tif
176
     1
290
     0
176
     1
 40
1.0
176
     1
 40
1.0
176
     1
  0
VISUALSTYLE
  5
14B
102
{ACAD_REACTORS
330
138
102
}
330
138
100
AcDbVisualStyle
  2
X-Ray
 70
    25
177
     3
291
     0
 70
    58
 90
        2
176
     1
 90
        2
176
     1
 90
        1
176
     1
 90
        1
176
     1
 40
0.5
176
     1
 40
30.0
176
     1
 62
     7
420
 16777215
176
     1
 90
        1
176
     1
 90
        0
176
     1
 62
     7
176
     1
 62
   257
176
     1
 90
        1
176
     1
 90
        1
176
     1
 40
1.0
176
     1
 90
        8
176
     1
 62
     7
176
     1
 40
1.0
176
     1
 90
        1
176
     1
 90
        6
176
     1
 90
        2
176
     1
 62
     7
176
     1
 90
        3
176
     1
 90
        0
176
     1
 90
        0
176
     1
290
     0
176
     1
 90
       13
176
     1
 40
0.0
176
     1
 90
        0
176
     1
290
     0
176
     1
290
     1
176
     1
290
     1
176
     1
290
     0
176
     1
290
     0
176
     1
290
     0
176
     1
290
     0
176
     1
290
     0
176
     1
290
     0
176
     1
 90
       50
176
     1
 40
0.0
176
     1
 40
1.0
176
     1
 90
        0
176
     1
 62
    18
420
        0
176
     1
 90
       50
176
     1
 90
        3
176
     1
 62
     5
420
      255
176
     1
290
     0
176
     1
 90
       50
176
     1
 90
       50
176
     1
 90
       50
176
     1
290
     0
176
     1
 90
       50
176
     1
 62
   256
176
     0
 40
1.0
176
     0
 90
        2
176
     1
  1
strokes_ogs.tif
176
     1
290
     0
176
     1
 40
1.0
176
     1
 40
1.0
176
     1
  0
DICTIONARYVAR
  5
18B
102
{ACAD_REACTORS
330
185
102
}
330
185
100
DictionaryVariables
280
     0
  1
1:1
  0
DICTIONARYVAR
  5
187
102
{ACAD_REACTORS
330
185
102
}
330
185
100
DictionaryVariables
280
     0
  1
STANDARD
  0
DICTIONARYVAR
  5
186
102
{ACAD_REACTORS
330
185
102
}
330
185
100
DictionaryVariables
280
     0
  1
STANDARD
  0
DICTIONARYVAR
  5
188
102
{ACAD_REACTORS
330
185
102
}
330
185
100
DictionaryVariables
280
     0
  1
Imperial24
  0
DICTIONARYVAR
  5
189
102
{ACAD_REACTORS
330
185
102
}
330
185
100
DictionaryVariables
280
     0
  1
Imperial24
  0
DICTIONARYVAR
  5
18D
102
{ACAD_REACTORS
330
185
102
}
330
185
100
DictionaryVariables
280
     0
  1
1
  0
DICTIONARYVAR
  5
18E
102
{ACAD_REACTORS
330
185
102
}
330
185
100
DictionaryVariables
280
     0
  1
15
  0
DICTIONARYVAR
  5
18C
102
{ACAD_REACTORS
330
185
102
}
330
185
100
DictionaryVariables
280
     0
  1
0
  0
DICTIONARYVAR
  5
18A
102
{ACAD_REACTORS
330
185
102
}
330
185
100
DictionaryVariables
280
     0
  1
0
  0
DICTIONARY
  5
1CE
330
16F
100
AcDbDictionary
280
     1
281
     1
  0
DICTIONARY
  5
129
330
128
100
AcDbDictionary
280
     1
281
     1
  3
BUMPTILE
360
12B
  3
DIFFUSETILE
360
12A
  3
OPACITYTILE
360
12E
  3
REFLECTIONTILE
360
12D
  3
REFRACTIONTILE
360
12F
  3
SPECULARTILE
360
12C
  0
DICTIONARY
  5
121
330
120
100
AcDbDictionary
280
     1
281
     1
  3
BUMPTILE
360
123
  3
DIFFUSETILE
360
122
  3
OPACITYTILE
360
126
  3
REFLECTIONTILE
360
125
  3
REFRACTIONTILE
360
127
  3
SPECULARTILE
360
124
  0
DICTIONARY
  5
131
330
130
100
AcDbDictionary
280
     1
281
     1
  3
BUMPTILE
360
133
  3
DIFFUSETILE
360
132
  3
OPACITYTILE
360
136
  3
REFLECTIONTILE
360
135
  3
REFRACTIONTILE
360
137
  3
SPECULARTILE
360
134
  0
DICTIONARY
  5
248
330
153
100
AcDbDictionary
280
     1
281
     1
  3
ACAD_ROUNDTRIP_2008_TABLESTYLE_CELLSTYLEMAP
360
249
  0
XRECORD
  5
12B
102
{ACAD_REACTORS
330
129
102
}
330
129
100
AcDbXrecord
280
     1
270
     1
271
     1
  0
XRECORD
  5
12A
102
{ACAD_REACTORS
330
129
102
}
330
129
100
AcDbXrecord
280
     1
270
     1
271
     1
  0
XRECORD
  5
12E
102
{ACAD_REACTORS
330
129
102
}
330
129
100
AcDbXrecord
280
     1
270
     1
271
     1
  0
XRECORD
  5
12D
102
{ACAD_REACTORS
330
129
102
}
330
129
100
AcDbXrecord
280
     1
270
     1
271
     1
  0
XRECORD
  5
12F
102
{ACAD_REACTORS
330
129
102
}
330
129
100
AcDbXrecord
280
     1
270
     1
271
     1
  0
XRECORD
  5
12C
102
{ACAD_REACTORS
330
129
102
}
330
129
100
AcDbXrecord
280
     1
270
     1
271
     1
  0
XRECORD
  5
123
102
{ACAD_REACTORS
330
121
102
}
330
121
100
AcDbXrecord
280
     1
270
     1
271
     1
  0
XRECORD
  5
122
102
{ACAD_REACTORS
330
121
102
}
330
121
100
AcDbXrecord
280
     1
270
     1
271
     1
  0
XRECORD
  5
126
102
{ACAD_REACTORS
330
121
102
}
330
121
100
AcDbXrecord
280
     1
270
     1
271
     1
  0
XRECORD
  5
125
102
{ACAD_REACTORS
330
121
102
}
330
121
100
AcDbXrecord
280
     1
270
     1
271
     1
  0
XRECORD
  5
127
102
{ACAD_REACTORS
330
121
102
}
330
121
100
AcDbXrecord
280
     1
270
     1
271
     1
  0
XRECORD
  5
124
102
{ACAD_REACTORS
330
121
102
}
330
121
100
AcDbXrecord
280
     1
270
     1
271
     1
  0
XRECORD
  5
133
102
{ACAD_REACTORS
330
131
102
}
330
131
100
AcDbXrecord
280
     1
270
     1
271
     1
  0
XRECORD
  5
132
102
{ACAD_REACTORS
330
131
102
}
330
131
100
AcDbXrecord
280
     1
270
     1
271
     1
  0
XRECORD
  5
136
102
{ACAD_REACTORS
330
131
102
}
330
131
100
AcDbXrecord
280
     1
270
     1
271
     1
  0
XRECORD
  5
135
102
{ACAD_REACTORS
330
131
102
}
330
131
100
AcDbXrecord
280
     1
270
     1
271
     1
  0
XRECORD
  5
137
102
{ACAD_REACTORS
330
131
102
}
330
131
100
AcDbXrecord
280
     1
270
     1
271
     1
  0
XRECORD
  5
134
102
{ACAD_REACTORS
330
131
102
}
330
131
100
AcDbXrecord
280
     1
270
     1
271
     1
  0
CELLSTYLEMAP
  5
249
102
{ACAD_REACTORS
330
248
102
}
330
248
100
AcDbCellStyleMap
 90
        3
300
CELLSTYLE
  1
TABLEFORMAT_BEGIN
 90
        5
170
     1
 91
        0
 92
    32768
 62
   257
 93
        1
300
CONTENTFORMAT
  1
CONTENTFORMAT_BEGIN
 90
        0
 91
        0
 92
      512
 93
        0
300

 40
0.0
140
1.0
 94
        5
 62
     0
340
17
144
0.25
309
CONTENTFORMAT_END
171
     0
 94
        0
309
TABLEFORMAT_END
  1
CELLSTYLE_BEGIN
 90
        1
 91
        1
300
_TITLE
309
CELLSTYLE_END
300
CELLSTYLE
  1
TABLEFORMAT_BEGIN
 90
        5
170
     1
 91
        0
 92
        0
 62
   257
 93
        1
300
CONTENTFORMAT
  1
CONTENTFORMAT_BEGIN
 90
        0
 91
        0
 92
      512
 93
        0
300

 40
0.0
140
1.0
 94
        5
 62
     0
340
17
144
0.18
309
CONTENTFORMAT_END
171
     0
 94
        0
309
TABLEFORMAT_END
  1
CELLSTYLE_BEGIN
 90
        2
 91
        1
300
_HEADER
309
CELLSTYLE_END
300
CELLSTYLE
  1
TABLEFORMAT_BEGIN
 90
        5
170
     1
 91
        0
 92
        0
 62
   257
 93
        1
300
CONTENTFORMAT
  1
CONTENTFORMAT_BEGIN
 90
        0
 91
        0
 92
      512
 93
        0
300

 40
0.0
140
1.0
 94
        2
 62
     0
340
17
144
0.18
309
CONTENTFORMAT_END
171
     0
 94
        0
309
TABLEFORMAT_END
  1
CELLSTYLE_BEGIN
 90
        3
 91
        2
300
_DATA
309
CELLSTYLE_END
  0
ENDSEC
  0
SECTION
  2
ACDSDATA
 70
     2
 71
     2
  0
ACDSSCHEMA
 90
        0
  1
AcDb_Thumbnail_Schema
  2
AcDbDs::ID
280
    10
 91
        8
  2
Thumbnail_Data
280
    15
 91
        0
101
ACDSRECORD
 95
        0
 90
        1
  2
AcDbDs::TreatedAsObjectData
280
     1
291
     1
101
ACDSRECORD
 95
        0
 90
        2
  2
AcDbDs::Legacy
280
     1
291
     1
101
ACDSRECORD
  1
AcDbDs::ID
 90
        3
  2
AcDs:Indexable
280
     1
291
     1
101
ACDSRECORD
  1
AcDbDs::ID
 90
        4
  2
AcDbDs::HandleAttribute
280
     7
282
     1
  0
ACDSSCHEMA
 90
        1
  1
AcDbDs::TreatedAsObjectDataSchema
  2
AcDbDs::TreatedAsObjectData
280
     1
 91
        0
  0
ACDSSCHEMA
 90
        2
  1
AcDbDs::LegacySchema
  2
AcDbDs::Legacy
280
     1
 91
        0
  0
ACDSSCHEMA
 90
        3
  1
AcDbDs::IndexedPropertySchema
  2
AcDs:Indexable
280
     1
 91
        0
  0
ACDSSCHEMA
 90
        4
  1
AcDbDs::HandleAttributeSchema
  2
AcDbDs::HandleAttribute
280
     7
 91
        1
284
     1
  0
ACDSRECORD
 90
        0
  2
AcDbDs::ID
280
    10
320
16F
  2
Thumbnail_Data
280
    15
 94
     1265
310
89504E470D0A1A0A0000000D49484452000001000000008C0803000000A4A9874300000300504C5445212830000000C8C8C80000000000000000000000000000000000000000000000000000330000660000990000CC0000FF0033000033330033660033990033CC0033FF0066000066330066660066990066CC0066FF0099
310
000099330099660099990099CC0099FF00CC0000CC3300CC6600CC9900CCCC00CCFF00FF0000FF3300FF6600FF9900FFCC00FFFF3300003300333300663300993300CC3300FF3333003333333333663333993333CC3333FF3366003366333366663366993366CC3366FF3399003399333399663399993399CC3399FF33CC00
310
33CC3333CC6633CC9933CCCC33CCFF33FF0033FF3333FF6633FF9933FFCC33FFFF6600006600336600666600996600CC6600FF6633006633336633666633996633CC6633FF6666006666336666666666996666CC6666FF6699006699336699666699996699CC6699FF66CC0066CC3366CC6666CC9966CCCC66CCFF66FF0066
310
FF3366FF6666FF9966FFCC66FFFF9900009900339900669900999900CC9900FF9933009933339933669933999933CC9933FF9966009966339966669966999966CC9966FF9999009999339999669999999999CC9999FF99CC0099CC3399CC6699CC9999CCCC99CCFF99FF0099FF3399FF6699FF9999FFCC99FFFFCC0000CC00
310
33CC0066CC0099CC00CCCC00FFCC3300CC3333CC3366CC3399CC33CCCC33FFCC6600CC6633CC6666CC6699CC66CCCC66FFCC9900CC9933CC9966CC9999CC99CCCC99FFCCCC00CCCC33CCCC66CCCC99CCCCCCCCCCFFCCFF00CCFF33CCFF66CCFF99CCFFCCCCFFFFFF0000FF0033FF0066FF0099FF00CCFF00FFFF3300FF3333
310
FF3366FF3399FF33CCFF33FFFF6600FF6633FF6666FF6699FF66CCFF66FFFF9900FF9933FF9966FF9999FF99CCFF99FFFFCC00FFCC33FFCC66FFCC99FFCCCCFFCCFFFFFF00FFFF33FFFF66FFFF99FFFFCCFFFFFF0000000D0D0D1A1A1A2828283535354343435050505D5D5D6B6B6B787878868686939393A1A1A1AEAEAEBB
310
BBBBC9C9C9D6D6D6E4E4E4F1F1F1FFFFFF000000000000000000000000000000000000000000000000000000000000B21171F6000001AC4944415478DAEDDBCB7284201085E17EA17EFF1D6FE53E1914ED46B452B34A9DFEBF54BCCE863328E0A01900000000000000000000000000000000E04BDBB6F5A51DEBDFE5D6D763
310
BFAFB503D84B39ADE3210000000010D3DA3926B273D8731EAC53FCCF10F8F3B738A15DFE4B1FFDC6032502982E81F8FD5709E0AB730440005A0178D2A63BE1E7987A00C77FDCDACFB5391EC9007AA97DCEE20AC0AE620B07304AE831807E0DC80790ABF6B91703D0BE043C7EB5D74E08C0A46B80DB2D80BE6CF903B201DC4B
310
7EAC09607C403B807C838F7B04700520DC0AA4363E3686E6EDF8E1DCA5FB017ED5700FDB7B00FBF40017EF08A5EA1DB7DB3159247793D44643A90678AA0163EA88740DC8FDFCB033B268F9B05E002FAD805568056E45F66500265C039E7B8256A12B1CCAE4AB1C0A05B0AE082502D81F7ABAAD5A43F9E701A3F97B6A0CE49F
310
08DDCB9C1B43537F26786F00E700AC42007FF86144FB1200000095ADBA4025E6CAF99BD115160F60A49022B1F1244C7FBAA43FCD0FF073384C00850328F0DAEC6B00E385EAAA0194786D9A4B809BE05B00460055460155C702000000000000000000C0FFF003E7FB3584E5BE627C0000000049454E44AE426082
  0
ACDSRECORD
 90
        0
  2
AcDbDs::ID
280
    10
320
170
  2
Thumbnail_Data
280
    15
 94
     1653
310
89504E470D0A1A0A0000000D4948445200000100000000B5080300000087DCD12600000300504C5445FFFFFF000000C8C8C80000000000000000000000000000000000000000000000000000330000660000990000CC0000FF0033000033330033660033990033CC0033FF0066000066330066660066990066CC0066FF0099
310
000099330099660099990099CC0099FF00CC0000CC3300CC6600CC9900CCCC00CCFF00FF0000FF3300FF6600FF9900FFCC00FFFF3300003300333300663300993300CC3300FF3333003333333333663333993333CC3333FF3366003366333366663366993366CC3366FF3399003399333399663399993399CC3399FF33CC00
310
33CC3333CC6633CC9933CCCC33CCFF33FF0033FF3333FF6633FF9933FFCC33FFFF6600006600336600666600996600CC6600FF6633006633336633666633996633CC6633FF6666006666336666666666996666CC6666FF6699006699336699666699996699CC6699FF66CC0066CC3366CC6666CC9966CCCC66CCFF66FF0066
310
FF3366FF6666FF9966FFCC66FFFF9900009900339900669900999900CC9900FF9933009933339933669933999933CC9933FF9966009966339966669966999966CC9966FF9999009999339999669999999999CC9999FF99CC0099CC3399CC6699CC9999CCCC99CCFF99FF0099FF3399FF6699FF9999FFCC99FFFFCC0000CC00
310
33CC0066CC0099CC00CCCC00FFCC3300CC3333CC3366CC3399CC33CCCC33FFCC6600CC6633CC6666CC6699CC66CCCC66FFCC9900CC9933CC9966CC9999CC99CCCC99FFCCCC00CCCC33CCCC66CCCC99CCCCCCCCCCFFCCFF00CCFF33CCFF66CCFF99CCFFCCCCFFFFFF0000FF0033FF0066FF0099FF00CCFF00FFFF3300FF3333
310
FF3366FF3399FF33CCFF33FFFF6600FF6633FF6666FF6699FF66CCFF66FFFF9900FF9933FF9966FF9999FF99CCFF99FFFFCC00FFCC33FFCC66FFCC99FFCCCCFFCCFFFFFF00FFFF33FFFF66FFFF99FFFFCCFFFFFF0000000D0D0D1A1A1A2828283535354343435050505D5D5D6B6B6B787878868686939393A1A1A1AEAEAEBB
310
BBBBC9C9C9D6D6D6E4E4E4F1F1F1FFFFFF000000000000000000000000000000000000000000000000000000000000B0E2D235000003304944415478DAEDDD5B72AB301045D19E50CFFF8FC16824B76C40C8A83B367970D1619F4AA59C18126B21849014C78C10420821841042082184104208993329E44700DFDAAB94B23C
310
787C94EDCBF68965B362A5D96BDBE2170FE27F007896BC16AF94B5ECF5510350DA6D55009A435E8F77FBFD7DD9D56AC0C5DA3100000000000000000000000000000000000000000000000000004E0358A702CA5D00765351659D05FA6A23198060222E0688B71D1D209E999C2B7FB1DF9FB7BC1E4072584B5E01E400E6A275
310
8D6057FE751B4980CB5D6501000000000000E06C00CFF2658F70DE4401C0D702F5DF8A7699B66DBCB31B11C0AD2FAD0702D3AE67E83BA04E6C3080D7A397034C6A001EBEF6A00AEC005C0C60FFD217017D000FEAFFDAC8BF1669BB819C2A808FDF08A62FBD7B625A3E3700367E0DF0F55847A7C0EB139200DEB57AFDD71EF7
310
03D40092AB40F38C22802745BE25C0571AAA006F6BFDBD00DA76CF8372E901249D3F4B7A78720051E72F2B8626807F0CF0EC1105004377853D15082B80870023D7000FEA803F5542173900B7F82488AAF15C2F1E3FFE317D3CCD2B282400E20B617C757800CC73A745673C206EC492966D03784E226B02D81B80B2FD7D6D3C
310
88300CC0725E7F760AD4CFF51418BF0DB0E38DA0AD8DA0299C02165F06F38ADD8D0D4A001CEA08A901442740DC32D41162A5AEB01DBA1788668806BF198A5B7BCFEB8622C0C1011179004FC7C8DD44012C1F08F6FB01BC14C8F319032980431323E200DD699F8E904A01E4C574CF8EBFC6E4E8EBED4FD087DBD63FA90364F5
310
D9931B03910512DD417BBF44A602482C91E95FF3DB4552AA001F2F93DB01981AC0DB85924D23A005F0E952D9FDAFD101F8D162E9F1AF02D70A00000000000000000000000000000000009CB3F367830027BD9DCEB90B240EE4AC8A761A402D53329813AD1D5C7FCD2401903CCEB7AA7F3B2502102C0B8D6BC06E7B15006B17
310
80E6873B181F0660FACB66F0FA007576F8AE0075ADF07D01EAFB2EDE126039F83707B8F129B0FDF7B93B37827FF9BEBB5C0601A027C8BD0000005C1AC000301580434BC30447852F19000000000000000000000000000080E33B2BC4082184104208218410420821849025FF003B9D2363919F671F0000000049454E44AE42
310
6082
  0
ENDSEC
  0
EOF
