  0
SECTION
  2
HEADER
  9
$ACADVER
  1
AC1027
  9
$ACADMAINTVER
 70
     8
  9
$DWGCODEPAGE
  3
ANSI_932
  9
$LASTSAVEDBY
  1
SK_1F_mouse_201604
  9
$REQUIREDVERSIONS
160
                 0
  9
$INSBASE
 10
0.0
 20
0.0
 30
0.0
  9
$EXTMIN
 10
-1512.30501235752
 20
-113.15603061167
 30
0.0
  9
$EXTMAX
 10
-1233.214945261804
 20
170.195461691398
 30
0.0
  9
$LIMMIN
 10
0.0
 20
0.0
  9
$LIMMAX
 10
297.0
 20
210.0
  9
$ORTHOMODE
 70
     1
  9
$REGENMODE
 70
     1
  9
$FILLMODE
 70
     1
  9
$QTEXTMODE
 70
     0
  9
$MIRRTEXT
 70
     1
  9
$LTSCALE
 40
1.0
  9
$ATTMODE
 70
     1
  9
$TEXTSIZE
 40
0.0
  9
$TRACEWID
 40
0.05
  9
$TEXTSTYLE
  7
STANDARD
  9
$CLAYER
  8
寸法
  9
$CELTYPE
  6
CONTINUOUS
  9
$CECOLOR
 62
   256
  9
$CELTSCALE
 40
1.0
  9
$DISPSILH
 70
     0
  9
$DIMSCALE
 40
1.0
  9
$DIMASZ
 40
0.18
  9
$DIMEXO
 40
0.0625
  9
$DIMDLI
 40
0.38
  9
$DIMRND
 40
0.0
  9
$DIMDLE
 40
0.0
  9
$DIMEXE
 40
0.18
  9
$DIMTP
 40
0.0
  9
$DIMTM
 40
0.0
  9
$DIMTXT
 40
5.0
  9
$DIMCEN
 40
0.09
  9
$DIMTSZ
 40
0.0
  9
$DIMTOL
 70
     0
  9
$DIMLIM
 70
     0
  9
$DIMTIH
 70
     1
  9
$DIMTOH
 70
     1
  9
$DIMSE1
 70
     0
  9
$DIMSE2
 70
     0
  9
$DIMTAD
 70
     0
  9
$DIMZIN
 70
     0
  9
$DIMBLK
  1

  9
$DIMASO
 70
     1
  9
$DIMSHO
 70
     1
  9
$DIMPOST
  1

  9
$DIMAPOST
  1

  9
$DIMALT
 70
     0
  9
$DIMALTD
 70
     2
  9
$DIMALTF
 40
25.4
  9
$DIMLFAC
 40
1.0
  9
$DIMTOFL
 70
     0
  9
$DIMTVP
 40
0.0
  9
$DIMTIX
 70
     0
  9
$DIMSOXD
 70
     0
  9
$DIMSAH
 70
     0
  9
$DIMBLK1
  1

  9
$DIMBLK2
  1

  9
$DIMSTYLE
  2
STANDARD
  9
$DIMCLRD
 70
     0
  9
$DIMCLRE
 70
     0
  9
$DIMCLRT
 70
     0
  9
$DIMTFAC
 40
1.0
  9
$DIMGAP
 40
0.09
  9
$DIMJUST
 70
     0
  9
$DIMSD1
 70
     0
  9
$DIMSD2
 70
     0
  9
$DIMTOLJ
 70
     1
  9
$DIMTZIN
 70
     0
  9
$DIMALTZ
 70
     0
  9
$DIMALTTZ
 70
     0
  9
$DIMUPT
 70
     0
  9
$DIMDEC
 70
     0
  9
$DIMTDEC
 70
     0
  9
$DIMALTU
 70
     2
  9
$DIMALTTD
 70
     2
  9
$DIMTXSTY
  7
STANDARD
  9
$DIMAUNIT
 70
     0
  9
$DIMADEC
 70
     0
  9
$DIMALTRND
 40
0.0
  9
$DIMAZIN
 70
     0
  9
$DIMDSEP
 70
    46
  9
$DIMATFIT
 70
     0
  9
$DIMFRAC
 70
     0
  9
$DIMLDRBLK
  1

  9
$DIMLUNIT
 70
     2
  9
$DIMLWD
 70
    -2
  9
$DIMLWE
 70
    -2
  9
$DIMTMOVE
 70
     0
  9
$DIMFXL
 40
1.0
  9
$DIMFXLON
 70
     0
  9
$DIMJOGANG
 40
0.7853981633974483
  9
$DIMTFILL
 70
     0
  9
$DIMTFILLCLR
 70
     0
  9
$DIMARCSYM
 70
     0
  9
$DIMLTYPE
  6

  9
$DIMLTEX1
  6

  9
$DIMLTEX2
  6

  9
$DIMTXTDIRECTION
 70
     0
  9
$LUNITS
 70
     2
  9
$LUPREC
 70
     4
  9
$SKETCHINC
 40
0.1
  9
$FILLETRAD
 40
0.0
  9
$AUNITS
 70
     0
  9
$AUPREC
 70
     0
  9
$MENU
  1
acad
  9
$ELEVATION
 40
0.0
  9
$PELEVATION
 40
0.0
  9
$THICKNESS
 40
0.0
  9
$LIMCHECK
 70
     0
  9
$CHAMFERA
 40
0.0
  9
$CHAMFERB
 40
0.0
  9
$CHAMFERC
 40
0.0
  9
$CHAMFERD
 40
0.0
  9
$SKPOLY
 70
     0
  9
$TDCREATE
 40
2305824.175156401
  9
$TDUCREATE
 40
2305823.800156401
  9
$TDUPDATE
 40
2457994.563500486
  9
$TDUUPDATE
 40
2457994.188500487
  9
$TDINDWG
 40
0.0404338889
  9
$TDUSRTIMER
 40
0.0404338889
  9
$USRTIMER
 70
     1
  9
$ANGBASE
 50
0.0
  9
$ANGDIR
 70
     0
  9
$PDMODE
 70
     0
  9
$PDSIZE
 40
0.0
  9
$PLINEWID
 40
0.0
  9
$SPLFRAME
 70
     0
  9
$SPLINETYPE
 70
     6
  9
$SPLINESEGS
 70
     8
  9
$HANDSEED
  5
3E5
  9
$SURFTAB1
 70
     6
  9
$SURFTAB2
 70
     6
  9
$SURFTYPE
 70
     6
  9
$SURFU
 70
     6
  9
$SURFV
 70
     6
  9
$UCSBASE
  2

  9
$UCSNAME
  2

  9
$UCSORG
 10
0.0
 20
0.0
 30
0.0
  9
$UCSXDIR
 10
1.0
 20
0.0
 30
0.0
  9
$UCSYDIR
 10
0.0
 20
1.0
 30
0.0
  9
$UCSORTHOREF
  2

  9
$UCSORTHOVIEW
 70
     0
  9
$UCSORGTOP
 10
0.0
 20
0.0
 30
0.0
  9
$UCSORGBOTTOM
 10
0.0
 20
0.0
 30
0.0
  9
$UCSORGLEFT
 10
0.0
 20
0.0
 30
0.0
  9
$UCSORGRIGHT
 10
0.0
 20
0.0
 30
0.0
  9
$UCSORGFRONT
 10
0.0
 20
0.0
 30
0.0
  9
$UCSORGBACK
 10
0.0
 20
0.0
 30
0.0
  9
$PUCSBASE
  2

  9
$PUCSNAME
  2

  9
$PUCSORG
 10
0.0
 20
0.0
 30
0.0
  9
$PUCSXDIR
 10
1.0
 20
0.0
 30
0.0
  9
$PUCSYDIR
 10
0.0
 20
1.0
 30
0.0
  9
$PUCSORTHOREF
  2

  9
$PUCSORTHOVIEW
 70
     0
  9
$PUCSORGTOP
 10
0.0
 20
0.0
 30
0.0
  9
$PUCSORGBOTTOM
 10
0.0
 20
0.0
 30
0.0
  9
$PUCSORGLEFT
 10
0.0
 20
0.0
 30
0.0
  9
$PUCSORGRIGHT
 10
0.0
 20
0.0
 30
0.0
  9
$PUCSORGFRONT
 10
0.0
 20
0.0
 30
0.0
  9
$PUCSORGBACK
 10
0.0
 20
0.0
 30
0.0
  9
$USERI1
 70
     0
  9
$USERI2
 70
     0
  9
$USERI3
 70
     0
  9
$USERI4
 70
     0
  9
$USERI5
 70
     0
  9
$USERR1
 40
0.0
  9
$USERR2
 40
0.0
  9
$USERR3
 40
0.0
  9
$USERR4
 40
0.0
  9
$USERR5
 40
0.0
  9
$WORLDVIEW
 70
     1
  9
$SHADEDGE
 70
     3
  9
$SHADEDIF
 70
    70
  9
$TILEMODE
 70
     1
  9
$MAXACTVP
 70
    16
  9
$PINSBASE
 10
0.0
 20
0.0
 30
0.0
  9
$PLIMCHECK
 70
     0
  9
$PEXTMIN
 10
1.000000000000000E+20
 20
1.000000000000000E+20
 30
1.000000000000000E+20
  9
$PEXTMAX
 10
-1.000000000000000E+20
 20
-1.000000000000000E+20
 30
-1.000000000000000E+20
  9
$PLIMMIN
 10
0.0
 20
0.0
  9
$PLIMMAX
 10
12.0
 20
9.0
  9
$UNITMODE
 70
     0
  9
$VISRETAIN
 70
     0
  9
$PLINEGEN
 70
     1
  9
$PSLTSCALE
 70
     0
  9
$TREEDEPTH
 70
  3020
  9
$CMLSTYLE
  2
STANDARD
  9
$CMLJUST
 70
     0
  9
$CMLSCALE
 40
1.0
  9
$PROXYGRAPHICS
 70
     1
  9
$MEASUREMENT
 70
     0
  9
$CELWEIGHT
370
    -1
  9
$ENDCAPS
280
     0
  9
$JOINSTYLE
280
     0
  9
$LWDISPLAY
290
     0
  9
$INSUNITS
 70
     0
  9
$HYPERLINKBASE
  1

  9
$STYLESHEET
  1

  9
$XEDIT
290
     1
  9
$CEPSNTYPE
380
     0
  9
$PSTYLEMODE
290
     1
  9
$FINGERPRINTGUID
  2
{0E7409A0-7F6F-411D-AD34-69A32A73E7B1}
  9
$VERSIONGUID
  2
{A8CF50EF-1476-4747-8DE6-0EA50C76AE8C}
  9
$EXTNAMES
290
     1
  9
$PSVPSCALE
 40
0.0
  9
$OLESTARTUP
290
     0
  9
$SORTENTS
280
   127
  9
$INDEXCTL
280
     0
  9
$HIDETEXT
280
     0
  9
$XCLIPFRAME
280
     2
  9
$HALOGAP
280
     0
  9
$OBSCOLOR
 70
   257
  9
$OBSLTYPE
280
     0
  9
$INTERSECTIONDISPLAY
280
     0
  9
$INTERSECTIONCOLOR
 70
   257
  9
$DIMASSOC
280
     1
  9
$PROJECTNAME
  1

  9
$CAMERADISPLAY
290
     0
  9
$LENSLENGTH
 40
50.0
  9
$CAMERAHEIGHT
 40
0.0
  9
$STEPSPERSEC
 40
2.0
  9
$STEPSIZE
 40
6.0
  9
$3DDWFPREC
 40
2.0
  9
$PSOLWIDTH
 40
0.25
  9
$PSOLHEIGHT
 40
4.0
  9
$LOFTANG1
 40
1.570796326794896
  9
$LOFTANG2
 40
1.570796326794896
  9
$LOFTMAG1
 40
0.0
  9
$LOFTMAG2
 40
0.0
  9
$LOFTPARAM
 70
     7
  9
$LOFTNORMALS
280
     1
  9
$LATITUDE
 40
37.795
  9
$LONGITUDE
 40
-122.394
  9
$NORTHDIRECTION
 40
0.0
  9
$TIMEZONE
 70
 -8000
  9
$LIGHTGLYPHDISPLAY
280
     1
  9
$TILEMODELIGHTSYNCH
280
     1
  9
$CMATERIAL
347
167
  9
$SOLIDHIST
280
     0
  9
$SHOWHIST
280
     1
  9
$DWFFRAME
280
     2
  9
$DGNFRAME
280
     0
  9
$REALWORLDSCALE
290
     1
  9
$INTERFERECOLOR
 62
     1
  9
$INTERFEREOBJVS
345
189
  9
$INTERFEREVPVS
346
186
  9
$CSHADOW
280
     0
  9
$SHADOWPLANELOCATION
 40
0.0
  0
ENDSEC
  0
SECTION
  2
CLASSES
  0
CLASS
  1
IMAGE
  2
AcDbRasterImage
  3
ISM
 90
     2175
 91
        0
280
     0
281
     1
  0
CLASS
  1
DICTIONARYVAR
  2
AcDbDictionaryVar
  3
ObjectDBX Classes
 90
        0
 91
        9
280
     0
281
     0
  0
CLASS
  1
RASTERVARIABLES
  2
AcDbRasterVariables
  3
ISM
 90
        0
 91
        0
280
     0
281
     0
  0
CLASS
  1
IMAGEDEF
  2
AcDbRasterImageDef
  3
ISM
 90
        0
 91
        0
280
     0
281
     0
  0
CLASS
  1
IMAGEDEF_REACTOR
  2
AcDbRasterImageDefReactor
  3
ISM
 90
        1
 91
        0
280
     0
281
     0
  0
CLASS
  1
IDBUFFER
  2
AcDbIdBuffer
  3
ObjectDBX Classes
 90
        0
 91
        0
280
     0
281
     0
  0
CLASS
  1
SPATIAL_FILTER
  2
AcDbSpatialFilter
  3
ObjectDBX Classes
 90
        0
 91
        0
280
     0
281
     0
  0
CLASS
  1
SORTENTSTABLE
  2
AcDbSortentsTable
  3
ObjectDBX Classes
 90
        0
 91
        1
280
     0
281
     0
  0
CLASS
  1
LAYER_INDEX
  2
AcDbLayerIndex
  3
ObjectDBX Classes
 90
        0
 91
        0
280
     0
281
     0
  0
CLASS
  1
SPATIAL_INDEX
  2
AcDbSpatialIndex
  3
ObjectDBX Classes
 90
        0
 91
        0
280
     0
281
     0
  0
CLASS
  1
OBJECT_PTR
  2
CAseDLPNTableRecord
  3
"ASE-LPNTableRecord"
 90
        0
 91
        0
280
     0
281
     0
  0
CLASS
  1
PLOTSETTINGS
  2
AcDbPlotSettings
  3
ObjectDBX Classes
 90
        0
 91
        0
280
     0
281
     0
  0
CLASS
  1
ACDBDICTIONARYWDFLT
  2
AcDbDictionaryWithDefault
  3
ObjectDBX Classes
 90
        0
 91
        1
280
     0
281
     0
  0
CLASS
  1
WIPEOUT
  2
AcDbWipeout
  3
WipeOut|Product Desc: Object Enabler for WipeOut entity | Company: Autodesk, Inc. | WEB Address: www.autodesk.com
 90
     2175
 91
        0
280
     0
281
     1
  0
CLASS
  1
WIPEOUTVARIABLES
  2
AcDbWipeoutVariables
  3
"WipeOut|Product Desc:     WipeOut Dbx Application|Company:          Autodesk, Inc.|WEB Address:      www.autodesk.com"
 90
        0
 91
        0
280
     0
281
     0
  0
CLASS
  1
RTEXT
  2
RText
  3
RText|AutoCAD Express Tool|expresstools@autodesk.com
 90
        0
 91
        0
280
     0
281
     1
  0
CLASS
  1
ARCALIGNEDTEXT
  2
AcDbArcAlignedText
  3
ATEXT|AutoCAD Express Tool|expresstools@autodesk.com
 90
        0
 91
        0
280
     0
281
     1
  0
CLASS
  1
MATERIAL
  2
AcDbMaterial
  3
ObjectDBX Classes
 90
     1153
 91
        3
280
     0
281
     0
  0
CLASS
  1
VISUALSTYLE
  2
AcDbVisualStyle
  3
ObjectDBX Classes
 90
     4095
 91
       24
280
     0
281
     0
  0
CLASS
  1
TABLESTYLE
  2
AcDbTableStyle
  3
ObjectDBX Classes
 90
     4095
 91
        1
280
     0
281
     0
  0
CLASS
  1
SCALE
  2
AcDbScale
  3
ObjectDBX Classes
 90
     1153
 91
       17
280
     0
281
     0
  0
CLASS
  1
MLEADERSTYLE
  2
AcDbMLeaderStyle
  3
ACDB_MLEADERSTYLE_CLASS
 90
     4095
 91
        1
280
     0
281
     0
  0
CLASS
  1
ACDBSECTIONVIEWSTYLE
  2
AcDbSectionViewStyle
  3
ObjectDBX Classes
 90
     1025
 91
        1
280
     0
281
     0
  0
CLASS
  1
ACDBDETAILVIEWSTYLE
  2
AcDbDetailViewStyle
  3
ObjectDBX Classes
 90
     1025
 91
        1
280
     0
281
     0
  0
CLASS
  1
CELLSTYLEMAP
  2
AcDbCellStyleMap
  3
ObjectDBX Classes
 90
     1152
 91
        1
280
     0
281
     0
  0
ENDSEC
  0
SECTION
  2
TABLES
  0
TABLE
  2
VPORT
  5
7
330
0
100
AcDbSymbolTable
 70
     1
  0
VPORT
  5
15
330
7
100
AcDbSymbolTableRecord
100
AcDbViewportTableRecord
  2
*ACTIVE
 70
     0
 10
0.0
 20
0.0
 11
1.0
 21
1.0
 12
-1153.451589163293
 22
153.1314389465945
 13
0.0
 23
0.0
 14
1.0
 24
1.0
 15
0.0
 25
0.0
 16
0.0
 26
0.0
 36
1.0
 17
0.0
 27
0.0
 37
0.0
 40
944.6682156063625
 41
1.695167286245353
 42
50.0
 43
0.0
 44
0.0
 50
0.0
 51
0.0
 71
     0
 72
   100
 73
     1
 74
     1
 75
     0
 76
     0
 77
     0
 78
     0
281
     0
 65
     1
110
0.0
120
0.0
130
0.0
111
1.0
121
0.0
131
0.0
112
0.0
122
1.0
132
0.0
 79
     0
146
0.0
348
185
 60
     3
 61
     5
292
     1
282
     1
141
0.0
142
0.0
 63
   250
421
  3355443
1001
ACAD_NAV_VCDISPLAY
1070
     3
  0
ENDTAB
  0
TABLE
  2
LTYPE
  5
4
330
0
100
AcDbSymbolTable
 70
     6
  0
LTYPE
  5
11
330
4
100
AcDbSymbolTableRecord
100
AcDbLinetypeTableRecord
  2
BYBLOCK
 70
     0
  3

 72
    65
 73
     0
 40
0.0
  0
LTYPE
  5
12
330
4
100
AcDbSymbolTableRecord
100
AcDbLinetypeTableRecord
  2
BYLAYER
 70
     0
  3

 72
    65
 73
     0
 40
0.0
  0
LTYPE
  5
13
330
4
100
AcDbSymbolTableRecord
100
AcDbLinetypeTableRecord
  2
CONTINUOUS
 70
     0
  3
実線
 72
    65
 73
     0
 40
0.0
  0
LTYPE
  5
1D
330
4
100
AcDbSymbolTableRecord
100
AcDbLinetypeTableRecord
  2
DASHED
 70
     0
  3
破線
 72
    65
 73
     2
 40
3.799999999999999
 49
3.0
 74
     0
 49
-0.8
 74
     0
  0
LTYPE
  5
1E
330
4
100
AcDbSymbolTableRecord
100
AcDbLinetypeTableRecord
  2
DOT
 70
     0
  3
点線
 72
    65
 73
     2
 40
2.0
 49
1.0
 74
     0
 49
-1.0
 74
     0
  0
LTYPE
  5
1F
330
4
100
AcDbSymbolTableRecord
100
AcDbLinetypeTableRecord
  2
DASHDOT
 70
     0
  3
一点鎖線
 72
    65
 73
     4
 40
25.6
 49
20.0
 74
     0
 49
-2.0
 74
     0
 49
1.6
 74
     0
 49
-2.0
 74
     0
  0
LTYPE
  5
20
330
4
100
AcDbSymbolTableRecord
100
AcDbLinetypeTableRecord
  2
DIVIDE
 70
     0
  3
二点鎖線
 72
    65
 73
     6
 40
31.2
 49
20.0
 74
     0
 49
-2.399999999999999
 74
     0
 49
2.0
 74
     0
 49
-2.399999999999999
 74
     0
 49
2.0
 74
     0
 49
-2.399999999999999
 74
     0
  0
LTYPE
  5
1B0
330
4
100
AcDbSymbolTableRecord
100
AcDbLinetypeTableRecord
  2
PHANTOM2
 70
     0
  3
___ _ _ ___ _ _ ___ _ _ ___ _ _
 72
    65
 73
     6
 40
1.25
 49
0.625
 74
     0
 49
-0.125
 74
     0
 49
0.125
 74
     0
 49
-0.125
 74
     0
 49
0.125
 74
     0
 49
-0.125
 74
     0
  0
ENDTAB
  0
TABLE
  2
LAYER
  5
2
102
{ACAD_XDICTIONARY
360
1C7
102
}
330
0
100
AcDbSymbolTable
 70
     5
  0
LAYER
  5
14
102
{ACAD_XDICTIONARY
360
1BC
102
}
330
2
100
AcDbSymbolTableRecord
100
AcDbLayerTableRecord
  2
0
 70
     0
 62
     7
  6
CONTINUOUS
370
    -3
390
165
347
177
348
0
  0
LAYER
  5
25
102
{ACAD_XDICTIONARY
360
1BE
102
}
330
2
100
AcDbSymbolTableRecord
100
AcDbLayerTableRecord
  2
製肘
 70
     0
 62
     4
  6
CONTINUOUS
370
    -3
390
165
347
177
348
0
  0
LAYER
  5
26
102
{ACAD_XDICTIONARY
360
1C0
102
}
330
2
100
AcDbSymbolTableRecord
100
AcDbLayerTableRecord
  2
寧線
 70
     0
 62
     6
  6
DASHED
370
    -3
390
165
347
177
348
0
  0
LAYER
  5
27
102
{ACAD_XDICTIONARY
360
1C2
102
}
330
2
100
AcDbSymbolTableRecord
100
AcDbLayerTableRecord
  2
寸法
 70
     0
 62
     1
  6
CONTINUOUS
370
    -3
390
165
347
177
348
0
  0
LAYER
  5
1ED
330
2
100
AcDbSymbolTableRecord
100
AcDbLayerTableRecord
  2
Defpoints
 70
     0
 62
     7
  6
CONTINUOUS
290
     0
370
    -3
390
165
347
177
348
0
  0
ENDTAB
  0
TABLE
  2
STYLE
  5
3
330
0
100
AcDbSymbolTable
 70
     5
  0
STYLE
  5
17
330
3
100
AcDbSymbolTableRecord
100
AcDbTextStyleTableRecord
  2
STANDARD
 70
     0
 40
0.0
 41
1.0
 50
0.0
 71
     0
 42
0.0
  3
monotxt
  4

  0
STYLE
  5
21
330
3
100
AcDbSymbolTableRecord
100
AcDbTextStyleTableRecord
  2
EXCADSTD
 70
     0
 40
0.0
 41
1.0
 50
0.0
 71
     0
 42
0.2
  3
monotxt
  4
extfont
  0
STYLE
  5
22
330
3
100
AcDbSymbolTableRecord
100
AcDbTextStyleTableRecord
  2
EXCADVERT
 70
     4
 40
0.0
 41
1.0
 50
0.0
 71
     0
 42
0.286885
  3
monotxt
  4
extfont
  0
STYLE
  5
23
330
3
100
AcDbSymbolTableRecord
100
AcDbTextStyleTableRecord
  2
EXCADSTD2
 70
     0
 40
0.0
 41
1.0
 50
0.0
 71
     0
 42
0.2
  3
monotxt
  4
extfont
  0
STYLE
  5
24
330
3
100
AcDbSymbolTableRecord
100
AcDbTextStyleTableRecord
  2
EXCADVERT2
 70
     4
 40
0.0
 41
1.0
 50
0.0
 71
     0
 42
0.286885
  3
monotxt
  4
extfont
  0
ENDTAB
  0
TABLE
  2
VIEW
  5
5
330
0
100
AcDbSymbolTable
 70
     0
  0
ENDTAB
  0
TABLE
  2
UCS
  5
6
330
0
100
AcDbSymbolTable
 70
     0
  0
ENDTAB
  0
TABLE
  2
APPID
  5
8
330
0
100
AcDbSymbolTable
 70
     7
  0
APPID
  5
16
330
8
100
AcDbSymbolTableRecord
100
AcDbRegAppTableRecord
  2
ACAD
 70
     0
  0
APPID
  5
1CD
330
8
100
AcDbSymbolTableRecord
100
AcDbRegAppTableRecord
  2
ACAD_NAV_VCDISPLAY
 70
     0
  0
APPID
  5
225
330
8
100
AcDbSymbolTableRecord
100
AcDbRegAppTableRecord
  2
ACAD_EXEMPT_FROM_CAD_STANDARDS
 70
     0
  0
APPID
  5
276
330
8
100
AcDbSymbolTableRecord
100
AcDbRegAppTableRecord
  2
ACAD_DSTYLE_DIMJAG
 70
     0
  0
APPID
  5
277
330
8
100
AcDbSymbolTableRecord
100
AcDbRegAppTableRecord
  2
ACAD_DSTYLE_DIMTALN
 70
     0
  0
APPID
  5
2B2
330
8
100
AcDbSymbolTableRecord
100
AcDbRegAppTableRecord
  2
AcadAnnoMonitorAlertIconDisabled
 70
     0
  0
APPID
  5
3CC
330
8
100
AcDbSymbolTableRecord
100
AcDbRegAppTableRecord
  2
ACAD_PSEXT
 70
     0
  0
ENDTAB
  0
TABLE
  2
DIMSTYLE
  5
9
330
0
100
AcDbSymbolTable
 70
     1
100
AcDbDimStyleTable
 71
     1
340
18
  0
DIMSTYLE
105
18
102
{ACAD_REACTORS
330
294
330
2C7
330
315
330
32B
102
}
330
9
100
AcDbSymbolTableRecord
100
AcDbDimStyleTableRecord
  2
STANDARD
 70
     0
140
5.0
271
     0
272
     0
289
     0
340
17
1001
ACAD_DSTYLE_DIMJAG
1070
   388
1040
1.5
1001
ACAD_DSTYLE_DIMTALN
1070
   392
1070
     0
  0
ENDTAB
  0
TABLE
  2
BLOCK_RECORD
  5
1
330
0
100
AcDbSymbolTable
 70
    12
  0
BLOCK_RECORD
  5
A
102
{ACAD_XDICTIONARY
360
279
102
}
330
1
100
AcDbSymbolTableRecord
100
AcDbBlockTableRecord
  2
*MODEL_SPACE
340
1B6
 70
     0
280
     1
281
     0
  0
BLOCK_RECORD
  5
B
330
1
100
AcDbSymbolTableRecord
100
AcDbBlockTableRecord
  2
*PAPER_SPACE
340
1B7
 70
     0
280
     1
281
     0
  0
BLOCK_RECORD
  5
28
330
1
100
AcDbSymbolTableRecord
100
AcDbBlockTableRecord
  2
_EX_NORM
340
0
 70
     0
280
     1
281
     0
  0
BLOCK_RECORD
  5
29
330
1
100
AcDbSymbolTableRecord
100
AcDbBlockTableRecord
  2
_EX_BNORM
340
0
 70
     0
280
     1
281
     0
  0
BLOCK_RECORD
  5
2A
330
1
100
AcDbSymbolTableRecord
100
AcDbBlockTableRecord
  2
_EX_BCIR
340
0
 70
     0
280
     1
281
     0
  0
BLOCK_RECORD
  5
2B
330
1
100
AcDbSymbolTableRecord
100
AcDbBlockTableRecord
  2
_EX_RCIVIL
340
0
 70
     0
280
     1
281
     0
  0
BLOCK_RECORD
  5
2C
330
1
100
AcDbSymbolTableRecord
100
AcDbBlockTableRecord
  2
_EX_SLANT
340
0
 70
     0
280
     1
281
     0
  0
BLOCK_RECORD
  5
2D
330
1
100
AcDbSymbolTableRecord
100
AcDbBlockTableRecord
  2
_EX_NONE
340
0
 70
     0
280
     1
281
     0
  0
BLOCK_RECORD
  5
2E
330
1
100
AcDbSymbolTableRecord
100
AcDbBlockTableRecord
  2
_EX_CIVIL
340
0
 70
     0
280
     1
281
     0
  0
BLOCK_RECORD
  5
2F
330
1
100
AcDbSymbolTableRecord
100
AcDbBlockTableRecord
  2
_EX_WCIR
340
0
 70
     0
280
     1
281
     0
  0
BLOCK_RECORD
  5
295
330
1
100
AcDbSymbolTableRecord
100
AcDbBlockTableRecord
  2
*D8
340
0
 70
     0
280
     1
281
     0
  0
BLOCK_RECORD
  5
2C8
330
1
100
AcDbSymbolTableRecord
100
AcDbBlockTableRecord
  2
*D9
340
0
 70
     0
280
     1
281
     0
  0
BLOCK_RECORD
  5
316
330
1
100
AcDbSymbolTableRecord
100
AcDbBlockTableRecord
  2
*D10
340
0
 70
     0
280
     1
281
     0
  0
BLOCK_RECORD
  5
32C
330
1
100
AcDbSymbolTableRecord
100
AcDbBlockTableRecord
  2
*D11
340
0
 70
     0
280
     1
281
     0
  0
ENDTAB
  0
ENDSEC
  0
SECTION
  2
BLOCKS
  0
BLOCK
  5
D
330
A
100
AcDbEntity
  8
0
100
AcDbBlockBegin
  2
*MODEL_SPACE
 70
     0
 10
0.0
 20
0.0
 30
0.0
  3
*MODEL_SPACE
  1

  0
ENDBLK
  5
E
330
A
100
AcDbEntity
  8
0
100
AcDbBlockEnd
  0
BLOCK
  5
F
330
B
100
AcDbEntity
 67
     1
  8
0
100
AcDbBlockBegin
  2
*PAPER_SPACE
 70
     0
 10
0.0
 20
0.0
 30
0.0
  3
*PAPER_SPACE
  1

  0
ENDBLK
  5
10
330
B
100
AcDbEntity
 67
     1
  8
0
100
AcDbBlockEnd
  0
BLOCK
  5
30
330
28
100
AcDbEntity
  8
0
100
AcDbBlockBegin
  2
_EX_NORM
 70
     0
 10
0.0
 20
0.0
 30
0.0
  3
_EX_NORM
  1

  0
LINE
  5
31
330
28
100
AcDbEntity
  8
0
  6
Continuous
 62
     0
100
AcDbLine
 10
0.0
 20
0.0
 30
0.0
 11
-1.0
 21
0.0
 31
0.0
  0
LINE
  5
32
330
28
100
AcDbEntity
  8
0
  6
Continuous
 62
     0
100
AcDbLine
 10
0.0
 20
0.0
 30
0.0
 11
-0.9607689219999999
 21
0.277350098
 31
0.0
  0
LINE
  5
33
330
28
100
AcDbEntity
  8
0
  6
Continuous
 62
     0
100
AcDbLine
 10
0.0
 20
0.0
 30
0.0
 11
-0.9607689219999999
 21
-0.277350098
 31
0.0
  0
ENDBLK
  5
34
330
28
100
AcDbEntity
  8
0
100
AcDbBlockEnd
  0
BLOCK
  5
35
330
29
100
AcDbEntity
  8
0
100
AcDbBlockBegin
  2
_EX_BNORM
 70
     0
 10
0.0
 20
0.0
 30
0.0
  3
_EX_BNORM
  1

  0
LINE
  5
36
330
29
100
AcDbEntity
  8
0
  6
Continuous
 62
     0
100
AcDbLine
 10
0.0
 20
0.0
 30
0.0
 11
-1.0
 21
0.0
 31
0.0
  0
LINE
  5
37
330
29
100
AcDbEntity
  8
0
  6
Continuous
 62
     0
100
AcDbLine
 10
0.0
 20
0.0
 30
0.0
 11
-0.9607689219999999
 21
0.277350098
 31
0.0
  0
LINE
  5
38
330
29
100
AcDbEntity
  8
0
  6
Continuous
 62
     0
100
AcDbLine
 10
0.0
 20
0.0
 30
0.0
 11
-0.9607689219999999
 21
-0.277350098
 31
0.0
  0
LINE
  5
39
330
29
100
AcDbEntity
  8
0
  6
Continuous
 62
     0
100
AcDbLine
 10
0.0
 20
0.0
 30
0.0
 11
-0.9607689219999999
 21
0.138767504
 31
0.0
  0
LINE
  5
3A
330
29
100
AcDbEntity
  8
0
  6
Continuous
 62
     0
100
AcDbLine
 10
0.0
 20
0.0
 30
0.0
 11
-0.9607689219999999
 21
-0.138767504
 31
0.0
  0
LINE
  5
3B
330
29
100
AcDbEntity
  8
0
  6
Continuous
 62
     0
100
AcDbLine
 10
-0.9607689219999999
 20
0.277350098
 30
0.0
 11
-0.9607689219999999
 21
-0.277350098
 31
0.0
  0
ENDBLK
  5
3C
330
29
100
AcDbEntity
  8
0
100
AcDbBlockEnd
  0
BLOCK
  5
3D
330
2A
100
AcDbEntity
  8
0
100
AcDbBlockBegin
  2
_EX_BCIR
 70
     0
 10
0.0
 20
0.0
 30
0.0
  3
_EX_BCIR
  1

  0
LINE
  5
3E
330
2A
100
AcDbEntity
  8
0
  6
Continuous
 62
     0
100
AcDbLine
 10
0.0
 20
0.0
 30
0.0
 11
-1.0
 21
0.0
 31
0.0
  0
CIRCLE
  5
3F
330
2A
100
AcDbEntity
  8
0
  6
Continuous
 62
     0
100
AcDbCircle
 10
0.0
 20
0.0
 30
0.0
 40
0.5
  0
CIRCLE
  5
40
330
2A
100
AcDbEntity
  8
0
  6
Continuous
 62
     0
100
AcDbCircle
 10
0.0
 20
0.0
 30
0.0
 40
0.25
  0
ENDBLK
  5
41
330
2A
100
AcDbEntity
  8
0
100
AcDbBlockEnd
  0
BLOCK
  5
42
330
2B
100
AcDbEntity
  8
0
100
AcDbBlockBegin
  2
_EX_RCIVIL
 70
     0
 10
0.0
 20
0.0
 30
0.0
  3
_EX_RCIVIL
  1

  0
LINE
  5
43
330
2B
100
AcDbEntity
  8
0
  6
Continuous
 62
     0
100
AcDbLine
 10
0.0
 20
0.0
 30
0.0
 11
-1.0
 21
0.0
 31
0.0
  0
LINE
  5
44
330
2B
100
AcDbEntity
  8
0
  6
Continuous
 62
     0
100
AcDbLine
 10
-1.0
 20
-0.25
 30
0.0
 11
0.0
 21
-0.25
 31
0.0
  0
LINE
  5
45
330
2B
100
AcDbEntity
  8
0
  6
Continuous
 62
     0
100
AcDbLine
 10
-1.0
 20
-0.125
 30
0.0
 11
0.0
 21
-0.125
 31
0.0
  0
ENDBLK
  5
46
330
2B
100
AcDbEntity
  8
0
100
AcDbBlockEnd
  0
BLOCK
  5
47
330
2C
100
AcDbEntity
  8
0
100
AcDbBlockBegin
  2
_EX_SLANT
 70
     0
 10
0.0
 20
0.0
 30
0.0
  3
_EX_SLANT
  1

  0
LINE
  5
48
330
2C
100
AcDbEntity
  8
0
  6
Continuous
 62
     0
100
AcDbLine
 10
0.0
 20
0.0
 30
0.0
 11
-1.0
 21
0.0
 31
0.0
  0
LINE
  5
49
330
2C
100
AcDbEntity
  8
0
  6
Continuous
 62
     0
100
AcDbLine
 10
0.7071067810000001
 20
0.7071067810000001
 30
0.0
 11
-0.7071067810000001
 21
-0.7071067810000001
 31
0.0
  0
ENDBLK
  5
4A
330
2C
100
AcDbEntity
  8
0
100
AcDbBlockEnd
  0
BLOCK
  5
4B
330
2D
100
AcDbEntity
  8
0
100
AcDbBlockBegin
  2
_EX_NONE
 70
     0
 10
0.0
 20
0.0
 30
0.0
  3
_EX_NONE
  1

  0
LINE
  5
4C
330
2D
100
AcDbEntity
  8
0
  6
Continuous
 62
     0
100
AcDbLine
 10
0.0
 20
0.0
 30
0.0
 11
-1.0
 21
0.0
 31
0.0
  0
ENDBLK
  5
4D
330
2D
100
AcDbEntity
  8
0
100
AcDbBlockEnd
  0
BLOCK
  5
4E
330
2E
100
AcDbEntity
  8
0
100
AcDbBlockBegin
  2
_EX_CIVIL
 70
     0
 10
0.0
 20
0.0
 30
0.0
  3
_EX_CIVIL
  1

  0
LINE
  5
4F
330
2E
100
AcDbEntity
  8
0
  6
Continuous
 62
     0
100
AcDbLine
 10
0.0
 20
0.0
 30
0.0
 11
-1.0
 21
0.0
 31
0.0
  0
LINE
  5
50
330
2E
100
AcDbEntity
  8
0
  6
Continuous
 62
     0
100
AcDbLine
 10
-1.0
 20
0.25
 30
0.0
 11
0.0
 21
0.25
 31
0.0
  0
LINE
  5
51
330
2E
100
AcDbEntity
  8
0
  6
Continuous
 62
     0
100
AcDbLine
 10
-1.0
 20
0.125
 30
0.0
 11
0.0
 21
0.125
 31
0.0
  0
ENDBLK
  5
52
330
2E
100
AcDbEntity
  8
0
100
AcDbBlockEnd
  0
BLOCK
  5
53
330
2F
100
AcDbEntity
  8
0
100
AcDbBlockBegin
  2
_EX_WCIR
 70
     0
 10
0.0
 20
0.0
 30
0.0
  3
_EX_WCIR
  1

  0
LINE
  5
54
330
2F
100
AcDbEntity
  8
0
  6
Continuous
 62
     0
100
AcDbLine
 10
0.0
 20
0.0
 30
0.0
 11
-1.0
 21
0.0
 31
0.0
  0
CIRCLE
  5
55
330
2F
100
AcDbEntity
  8
0
  6
Continuous
 62
     0
100
AcDbCircle
 10
0.0
 20
0.0
 30
0.0
 40
0.5
  0
ENDBLK
  5
56
330
2F
100
AcDbEntity
  8
0
100
AcDbBlockEnd
  0
BLOCK
  5
296
330
295
100
AcDbEntity
  8
0
100
AcDbBlockBegin
  2
*D8
 70
     1
 10
0.0
 20
0.0
 30
0.0
  3
*D8
  1

  0
LINE
  5
39D
330
295
100
AcDbEntity
  8
寸法
  6
Continuous
 62
     0
440
 16777216
370
    -2
100
AcDbLine
 10
-1485.802945261804
 20
141.31950000001
 30
0.0
 11
-1485.802945261804
 21
167.875461691398
 31
0.0
  0
LINE
  5
39E
330
295
100
AcDbEntity
  8
寸法
  6
Continuous
 62
     0
440
 16777216
370
    -2
100
AcDbLine
 10
-1365.602945261804
 20
141.31950000001
 30
0.0
 11
-1365.602945261804
 21
167.875461691398
 31
0.0
  0
LINE
  5
39F
330
295
100
AcDbEntity
  8
寸法
  6
Continuous
 62
     0
440
 16777216
370
    -2
100
AcDbLine
 10
-1485.622945261804
 20
167.695461691398
 30
0.0
 11
-1432.45961192847
 21
167.695461691398
 31
0.0
  0
LINE
  5
3A0
330
295
100
AcDbEntity
  8
寸法
  6
Continuous
 62
     0
440
 16777216
370
    -2
100
AcDbLine
 10
-1365.782945261804
 20
167.695461691398
 30
0.0
 11
-1418.946278595137
 21
167.695461691398
 31
0.0
  0
SOLID
  5
3A1
330
295
100
AcDbEntity
  8
寸法
  6
Continuous
 62
     0
440
 16777216
100
AcDbTrace
 10
-1485.622945261804
 20
167.725461691398
 30
0.0
 11
-1485.622945261804
 21
167.665461691398
 31
0.0
 12
-1485.802945261804
 22
167.695461691398
 32
0.0
 13
-1485.802945261804
 23
167.695461691398
 33
0.0
  0
SOLID
  5
3A2
330
295
100
AcDbEntity
  8
寸法
  6
Continuous
 62
     0
440
 16777216
100
AcDbTrace
 10
-1365.782945261804
 20
167.725461691398
 30
0.0
 11
-1365.782945261804
 21
167.665461691398
 31
0.0
 12
-1365.602945261804
 22
167.695461691398
 32
0.0
 13
-1365.602945261804
 23
167.695461691398
 33
0.0
  0
MTEXT
  5
3A3
330
295
100
AcDbEntity
  8
寸法
  6
Continuous
 62
     0
440
 16777216
100
AcDbMText
 10
-1425.702945261804
 20
167.695461691398
 30
0.0
 40
5.0
 41
0.0
 46
0.0
 71
     5
 72
     1
  1
\A1;{\C7;120}
 73
     1
 44
1.0
  0
POINT
  5
3A4
330
295
100
AcDbEntity
  8
Defpoints
  6
Continuous
 62
     0
440
 16777216
100
AcDbPoint
 10
-1485.802945261804
 20
141.25700000001
 30
0.0
  0
POINT
  5
3A5
330
295
100
AcDbEntity
  8
Defpoints
  6
Continuous
 62
     0
440
 16777216
100
AcDbPoint
 10
-1365.602945261804
 20
141.25700000001
 30
0.0
  0
POINT
  5
3A6
330
295
100
AcDbEntity
  8
Defpoints
  6
Continuous
 62
     0
440
 16777216
100
AcDbPoint
 10
-1365.602945261804
 20
167.695461691398
 30
0.0
  0
ENDBLK
  5
297
330
295
100
AcDbEntity
  8
0
100
AcDbBlockEnd
  0
BLOCK
  5
2C9
330
2C8
100
AcDbEntity
  8
0
100
AcDbBlockBegin
  2
*D9
 70
     1
 10
0.0
 20
0.0
 30
0.0
  3
*D9
  1

  0
LINE
  5
3A7
330
2C8
100
AcDbEntity
  8
寸法
  6
Continuous
 62
     0
440
 16777216
370
    -2
100
AcDbLine
 10
-1475.361445261804
 20
151.76100000001
 30
0.0
 11
-1508.318345690854
 21
151.76100000001
 31
0.0
  0
LINE
  5
3A8
330
2C8
100
AcDbEntity
  8
寸法
  6
Continuous
 62
     0
440
 16777216
370
    -2
100
AcDbLine
 10
-1475.361445261804
 20
94.18100000001
 30
0.0
 11
-1508.318345690854
 21
94.18100000001002
 31
0.0
  0
LINE
  5
3A9
330
2C8
100
AcDbEntity
  8
寸法
  6
Continuous
 62
     0
440
 16777216
370
    -2
100
AcDbLine
 10
-1508.138345690854
 20
151.58100000001
 30
0.0
 11
-1508.138345690854
 21
125.56100000001
 31
0.0
  0
LINE
  5
3AA
330
2C8
100
AcDbEntity
  8
寸法
  6
Continuous
 62
     0
440
 16777216
370
    -2
100
AcDbLine
 10
-1508.138345690854
 20
94.36100000001003
 30
0.0
 11
-1508.138345690854
 21
120.38100000001
 31
0.0
  0
SOLID
  5
3AB
330
2C8
100
AcDbEntity
  8
寸法
  6
Continuous
 62
     0
440
 16777216
100
AcDbTrace
 10
-1508.168345690854
 20
151.58100000001
 30
0.0
 11
-1508.108345690854
 21
151.58100000001
 31
0.0
 12
-1508.138345690854
 22
151.76100000001
 32
0.0
 13
-1508.138345690854
 23
151.76100000001
 33
0.0
  0
SOLID
  5
3AC
330
2C8
100
AcDbEntity
  8
寸法
  6
Continuous
 62
     0
440
 16777216
100
AcDbTrace
 10
-1508.168345690854
 20
94.36100000001003
 30
0.0
 11
-1508.108345690854
 21
94.36100000001003
 31
0.0
 12
-1508.138345690854
 22
94.18100000001002
 32
0.0
 13
-1508.138345690854
 23
94.18100000001002
 33
0.0
  0
MTEXT
  5
3AD
330
2C8
100
AcDbEntity
  8
寸法
  6
Continuous
 62
     0
440
 16777216
100
AcDbMText
 10
-1508.138345690854
 20
122.9710000000097
 30
0.0
 40
5.0
 41
0.0
 46
0.0
 71
     5
 72
     1
  1
\A1;{\C7;58}
 73
     1
 44
1.0
  0
POINT
  5
3AE
330
2C8
100
AcDbEntity
  8
Defpoints
  6
Continuous
 62
     0
440
 16777216
100
AcDbPoint
 10
-1475.298945261804
 20
151.76100000001
 30
0.0
  0
POINT
  5
3AF
330
2C8
100
AcDbEntity
  8
Defpoints
  6
Continuous
 62
     0
440
 16777216
100
AcDbPoint
 10
-1475.298945261804
 20
94.18100000001
 30
0.0
  0
POINT
  5
3B0
330
2C8
100
AcDbEntity
  8
Defpoints
  6
Continuous
 62
     0
440
 16777216
100
AcDbPoint
 10
-1508.138345690854
 20
94.18100000001002
 30
0.0
  0
ENDBLK
  5
2CA
330
2C8
100
AcDbEntity
  8
0
100
AcDbBlockEnd
  0
BLOCK
  5
317
330
316
100
AcDbEntity
  8
0
100
AcDbBlockBegin
  2
*D10
 70
     1
 10
0.0
 20
0.0
 30
0.0
  3
*D10
  1

  0
LINE
  5
3B1
330
316
100
AcDbEntity
  8
寸法
  6
Continuous
 62
     0
440
 16777216
370
    -2
100
AcDbLine
 10
-1484.731384701908
 20
46.62000000001009
 30
0.0
 11
-1508.318345690854
 21
46.6200000000101
 31
0.0
  0
LINE
  5
3B2
330
316
100
AcDbEntity
  8
寸法
  6
Continuous
 62
     0
440
 16777216
370
    -2
100
AcDbLine
 10
-1484.731384701908
 20
-25.37999999998991
 30
0.0
 11
-1508.318345690854
 21
-25.3799999999899
 31
0.0
  0
LINE
  5
3B3
330
316
100
AcDbEntity
  8
寸法
  6
Continuous
 62
     0
440
 16777216
370
    -2
100
AcDbLine
 10
-1508.138345690854
 20
46.44000000001009
 30
0.0
 11
-1508.138345690854
 21
13.2100000000101
 31
0.0
  0
LINE
  5
3B4
330
316
100
AcDbEntity
  8
寸法
  6
Continuous
 62
     0
440
 16777216
370
    -2
100
AcDbLine
 10
-1508.138345690854
 20
-25.19999999998991
 30
0.0
 11
-1508.138345690854
 21
8.030000000010101
 31
0.0
  0
SOLID
  5
3B5
330
316
100
AcDbEntity
  8
寸法
  6
Continuous
 62
     0
440
 16777216
100
AcDbTrace
 10
-1508.168345690854
 20
46.44000000001009
 30
0.0
 11
-1508.108345690854
 21
46.44000000001009
 31
0.0
 12
-1508.138345690854
 22
46.6200000000101
 32
0.0
 13
-1508.138345690854
 23
46.6200000000101
 33
0.0
  0
SOLID
  5
3B6
330
316
100
AcDbEntity
  8
寸法
  6
Continuous
 62
     0
440
 16777216
100
AcDbTrace
 10
-1508.168345690854
 20
-25.19999999998991
 30
0.0
 11
-1508.108345690854
 21
-25.19999999998991
 31
0.0
 12
-1508.138345690854
 22
-25.3799999999899
 32
0.0
 13
-1508.138345690854
 23
-25.3799999999899
 33
0.0
  0
MTEXT
  5
3B7
330
316
100
AcDbEntity
  8
寸法
  6
Continuous
 62
     0
440
 16777216
100
AcDbMText
 10
-1508.138345690854
 20
10.62000000000986
 30
0.0
 40
5.0
 41
0.0
 46
0.0
 71
     5
 72
     1
  1
\A1;{\C7;72}
 73
     1
 44
1.0
  0
POINT
  5
3B8
330
316
100
AcDbEntity
  8
Defpoints
  6
Continuous
 62
     0
440
 16777216
100
AcDbPoint
 10
-1484.668884701908
 20
46.62000000001009
 30
0.0
  0
POINT
  5
3B9
330
316
100
AcDbEntity
  8
Defpoints
  6
Continuous
 62
     0
440
 16777216
100
AcDbPoint
 10
-1484.668884701908
 20
-25.37999999998991
 30
0.0
  0
POINT
  5
3BA
330
316
100
AcDbEntity
  8
Defpoints
  6
Continuous
 62
     0
440
 16777216
100
AcDbPoint
 10
-1508.138345690854
 20
-25.3799999999899
 30
0.0
  0
ENDBLK
  5
318
330
316
100
AcDbEntity
  8
0
100
AcDbBlockEnd
  0
BLOCK
  5
32D
330
32C
100
AcDbEntity
  8
0
100
AcDbBlockBegin
  2
*D11
 70
     1
 10
0.0
 20
0.0
 30
0.0
  3
*D11
  1

  0
LINE
  5
3BB
330
32C
100
AcDbEntity
  8
寸法
  6
Continuous
 62
     0
440
 16777216
370
    -2
100
AcDbLine
 10
-1305.214945261804
 20
150.6894394401143
 30
0.0
 11
-1305.214945261804
 21
167.845461691398
 31
0.0
  0
LINE
  5
3BC
330
32C
100
AcDbEntity
  8
寸法
  6
Continuous
 62
     0
440
 16777216
370
    -2
100
AcDbLine
 10
-1233.214945261804
 20
150.6894394401143
 30
0.0
 11
-1233.214945261804
 21
167.845461691398
 31
0.0
  0
LINE
  5
3BD
330
32C
100
AcDbEntity
  8
寸法
  6
Continuous
 62
     0
440
 16777216
370
    -2
100
AcDbLine
 10
-1305.034945261804
 20
167.665461691398
 30
0.0
 11
-1273.47161192847
 21
167.665461691398
 31
0.0
  0
LINE
  5
3BE
330
32C
100
AcDbEntity
  8
寸法
  6
Continuous
 62
     0
440
 16777216
370
    -2
100
AcDbLine
 10
-1233.394945261804
 20
167.665461691398
 30
0.0
 11
-1264.958278595137
 21
167.665461691398
 31
0.0
  0
SOLID
  5
3BF
330
32C
100
AcDbEntity
  8
寸法
  6
Continuous
 62
     0
440
 16777216
100
AcDbTrace
 10
-1305.034945261804
 20
167.695461691398
 30
0.0
 11
-1305.034945261804
 21
167.635461691398
 31
0.0
 12
-1305.214945261804
 22
167.665461691398
 32
0.0
 13
-1305.214945261804
 23
167.665461691398
 33
0.0
  0
SOLID
  5
3C0
330
32C
100
AcDbEntity
  8
寸法
  6
Continuous
 62
     0
440
 16777216
100
AcDbTrace
 10
-1233.394945261804
 20
167.695461691398
 30
0.0
 11
-1233.394945261804
 21
167.635461691398
 31
0.0
 12
-1233.214945261804
 22
167.665461691398
 32
0.0
 13
-1233.214945261804
 23
167.665461691398
 33
0.0
  0
MTEXT
  5
3C1
330
32C
100
AcDbEntity
  8
寸法
  6
Continuous
 62
     0
440
 16777216
100
AcDbMText
 10
-1269.214945261804
 20
167.665461691398
 30
0.0
 40
5.0
 41
0.0
 46
0.0
 71
     5
 72
     1
  1
\A1;{\C7;72}
 73
     1
 44
1.0
  0
POINT
  5
3C2
330
32C
100
AcDbEntity
  8
Defpoints
  6
Continuous
 62
     0
440
 16777216
100
AcDbPoint
 10
-1305.214945261804
 20
150.6269394401143
 30
0.0
  0
POINT
  5
3C3
330
32C
100
AcDbEntity
  8
Defpoints
  6
Continuous
 62
     0
440
 16777216
100
AcDbPoint
 10
-1233.214945261804
 20
150.6269394401143
 30
0.0
  0
POINT
  5
3C4
330
32C
100
AcDbEntity
  8
Defpoints
  6
Continuous
 62
     0
440
 16777216
100
AcDbPoint
 10
-1233.214945261804
 20
167.665461691398
 30
0.0
  0
ENDBLK
  5
32E
330
32C
100
AcDbEntity
  8
0
100
AcDbBlockEnd
  0
ENDSEC
  0
SECTION
  2
ENTITIES
  0
LINE
  5
57
330
A
100
AcDbEntity
  8
製肘
  6
Continuous
 62
     4
100
AcDbLine
 10
-1300.669945261804
 20
94.18100000001
 30
0.0
 11
-1300.669945261804
 21
123.47100000001
 31
0.0
  0
LINE
  5
58
330
A
100
AcDbEntity
  8
製肘
  6
Continuous
 62
     4
100
AcDbLine
 10
-1284.004945261804
 20
111.8559999999877
 30
0.0
 11
-1284.004945261804
 21
123.47100000001
 31
0.0
  0
LINE
  5
59
330
A
100
AcDbEntity
  8
製肘
  6
Continuous
 62
     4
100
AcDbLine
 10
-1304.240193753473
 20
151.6363241754036
 30
0.0
 11
-1300.669945261804
 21
151.7610000000096
 31
0.0
  0
ARC
  5
5A
330
A
100
AcDbEntity
  8
製肘
  6
Continuous
 62
     4
100
AcDbCircle
 10
-1304.204945261804
 20
150.6269394401143
 30
0.0
 40
1.01
100
AcDbArc
 50
92.0000000000037
 51
180.0
  0
LINE
  5
5B
330
A
100
AcDbEntity
  8
製肘
  6
Continuous
 62
     4
100
AcDbLine
 10
-1305.214945261804
 20
95.31506055990567
 30
0.0
 11
-1305.214945261804
 21
123.47100000001
 31
0.0
  0
LINE
  5
5C
330
A
100
AcDbEntity
  8
製肘
  6
Continuous
 62
     4
100
AcDbLine
 10
-1304.240193753473
 20
94.30567582461643
 30
0.0
 11
-1300.669945261804
 21
94.18100000001034
 31
0.0
  0
ARC
  5
5D
330
A
100
AcDbEntity
  8
製肘
  6
Continuous
 62
     4
100
AcDbCircle
 10
-1304.204945261804
 20
95.31506055990567
 30
0.0
 40
1.01
100
AcDbArc
 50
180.0
 51
267.9999999999963
  0
LINE
  5
5E
330
A
100
AcDbEntity
  8
製肘
  6
Continuous
 62
     4
100
AcDbLine
 10
-1304.240193753473
 20
146.2240119851249
 30
0.0
 11
-1300.669945261804
 21
146.348687809731
 31
0.0
  0
ARC
  5
5F
330
A
100
AcDbEntity
  8
製肘
  6
Continuous
 62
     4
100
AcDbCircle
 10
-1304.204945261804
 20
145.2146272498356
 30
0.0
 40
1.01
100
AcDbArc
 50
92.0000000000037
 51
180.0
  0
LINE
  5
60
330
A
100
AcDbEntity
  8
製肘
  6
Continuous
 62
     4
100
AcDbLine
 10
-1304.240193753473
 20
144.444946599769
 30
0.0
 11
-1300.669945261804
 21
144.569622424375
 31
0.0
  0
ARC
  5
61
330
A
100
AcDbEntity
  8
製肘
  6
Continuous
 62
     4
100
AcDbCircle
 10
-1304.204945261804
 20
143.4355618644797
 30
0.0
 40
1.01
100
AcDbArc
 50
92.0000000000037
 51
180.0
  0
LINE
  5
62
330
A
100
AcDbEntity
  8
製肘
  6
Continuous
 62
     4
100
AcDbLine
 10
-1304.240193753473
 20
141.9437483961291
 30
0.0
 11
-1300.669945261804
 21
142.0684242207352
 31
0.0
  0
ARC
  5
63
330
A
100
AcDbEntity
  8
製肘
  6
Continuous
 62
     4
100
AcDbCircle
 10
-1304.204945261804
 20
140.9343636608398
 30
0.0
 40
1.01
100
AcDbArc
 50
92.00000000000361
 51
180.0
  0
LINE
  5
64
330
A
100
AcDbEntity
  8
製肘
  6
Continuous
 62
     4
100
AcDbLine
 10
-1304.240193753473
 20
99.71798801489505
 30
0.0
 11
-1300.669945261804
 21
99.59331219028898
 31
0.0
  0
ARC
  5
65
330
A
100
AcDbEntity
  8
製肘
  6
Continuous
 62
     4
100
AcDbCircle
 10
-1304.204945261804
 20
100.7273727501844
 30
0.0
 40
1.01
100
AcDbArc
 50
180.0
 51
267.9999999999963
  0
LINE
  5
66
330
A
100
AcDbEntity
  8
製肘
  6
Continuous
 62
     4
100
AcDbLine
 10
-1304.240193753473
 20
101.497053400251
 30
0.0
 11
-1300.669945261804
 21
101.3723775756449
 31
0.0
  0
ARC
  5
67
330
A
100
AcDbEntity
  8
製肘
  6
Continuous
 62
     4
100
AcDbCircle
 10
-1304.204945261804
 20
102.5064381355402
 30
0.0
 40
1.01
100
AcDbArc
 50
180.0
 51
267.9999999999963
  0
LINE
  5
68
330
A
100
AcDbEntity
  8
製肘
  6
Continuous
 62
     4
100
AcDbLine
 10
-1304.240193753473
 20
103.9982516038908
 30
0.0
 11
-1300.669945261804
 21
103.8735757792847
 31
0.0
  0
ARC
  5
69
330
A
100
AcDbEntity
  8
製肘
  6
Continuous
 62
     4
100
AcDbCircle
 10
-1304.204945261804
 20
105.0076363391801
 30
0.0
 40
1.01
100
AcDbArc
 50
180.0
 51
267.9999999999963
  0
LINE
  5
6A
330
A
100
AcDbEntity
  8
製肘
  6
Continuous
 62
     4
100
AcDbLine
 10
-1290.064945261804
 20
140.6825351494726
 30
0.0
 11
-1300.669945261804
 21
140.6825351494726
 31
0.0
  0
LINE
  5
6B
330
A
100
AcDbEntity
  8
製肘
  6
Continuous
 62
     4
100
AcDbLine
 10
-1290.064945261804
 20
146.1764880749617
 30
0.0
 11
-1300.669945261804
 21
146.3615990385252
 31
0.0
  0
LINE
  5
6C
330
A
100
AcDbEntity
  8
製肘
  6
Continuous
 62
     4
100
AcDbLine
 10
-1290.064945261804
 20
140.6825351494726
 30
0.0
 11
-1290.064945261804
 21
146.1764880749617
 31
0.0
  0
LINE
  5
6D
330
A
100
AcDbEntity
  8
製肘
  6
Continuous
 62
     4
100
AcDbLine
 10
-1290.064945261804
 20
105.2594648505474
 30
0.0
 11
-1300.669945261804
 21
105.2594648505474
 31
0.0
  0
LINE
  5
6E
330
A
100
AcDbEntity
  8
製肘
  6
Continuous
 62
     4
100
AcDbLine
 10
-1290.064945261804
 20
99.76551192505823
 30
0.0
 11
-1300.669945261804
 21
99.58040096149474
 31
0.0
  0
LINE
  5
6F
330
A
100
AcDbEntity
  8
製肘
  6
Continuous
 62
     4
100
AcDbLine
 10
-1290.064945261804
 20
105.2594648505474
 30
0.0
 11
-1290.064945261804
 21
99.76551192505823
 31
0.0
  0
CIRCLE
  5
70
330
A
100
AcDbEntity
  8
製肘
  6
Continuous
 62
     4
100
AcDbCircle
 10
-1456.714945261804
 20
122.47100000001
 30
0.0
 40
2.524999999999999
  0
LINE
  5
71
330
A
100
AcDbEntity
  8
製肘
  6
Continuous
 62
     4
100
AcDbLine
 10
-1474.730874214903
 20
94.18100000001
 30
0.0
 11
-1438.699016308705
 21
94.18100000001
 31
0.0
  0
CIRCLE
  5
72
330
A
100
AcDbEntity
  8
製肘
  6
Continuous
 62
     4
100
AcDbCircle
 10
-1394.690945261804
 20
122.47100000001
 30
0.0
 40
2.524999999999999
  0
LINE
  5
73
330
A
100
AcDbEntity
  8
製肘
  6
Continuous
 62
     4
100
AcDbLine
 10
-1376.675016308705
 20
94.18100000001
 30
0.0
 11
-1412.706874214903
 21
94.18100000001
 31
0.0
  0
LINE
  5
74
330
A
100
AcDbEntity
  8
製肘
  6
Continuous
 62
     4
100
AcDbLine
 10
-1475.298945261804
 20
151.76100000001
 30
0.0
 11
-1437.928945261804
 21
151.76100000001
 31
0.0
  0
ARC
  5
75
330
A
100
AcDbEntity
  8
製肘
  6
Continuous
 62
     4
100
AcDbCircle
 10
-1437.928945261804
 20
150.75100000001
 30
0.0
 40
1.01
100
AcDbArc
 50
14.25003269780367
 51
90.0
  0
ARC
  5
76
330
A
100
AcDbEntity
  8
製肘
  6
Continuous
 62
     4
100
AcDbCircle
 10
-1413.476945261804
 20
150.75100000001
 30
0.0
 40
1.01
100
AcDbArc
 50
90.0
 51
165.7499673021964
  0
LINE
  5
77
330
A
100
AcDbEntity
  8
製肘
  6
Continuous
 62
     4
100
AcDbLine
 10
-1376.106945261804
 20
151.76100000001
 30
0.0
 11
-1413.476945261804
 21
151.76100000001
 31
0.0
  0
LINE
  5
78
330
A
100
AcDbEntity
  8
製肘
  6
Continuous
 62
     4
100
AcDbLine
 10
-1475.298945261804
 20
94.18100000001
 30
0.0
 11
-1437.928945261804
 21
94.18100000001
 31
0.0
  0
ARC
  5
79
330
A
100
AcDbEntity
  8
製肘
  6
Continuous
 62
     4
100
AcDbCircle
 10
-1437.928945261804
 20
95.19100000001001
 30
0.0
 40
1.01
100
AcDbArc
 50
270.0
 51
345.7499673021965
  0
ARC
  5
7A
330
A
100
AcDbEntity
  8
製肘
  6
Continuous
 62
     4
100
AcDbCircle
 10
-1413.476945261804
 20
95.19100000001001
 30
0.0
 40
1.01
100
AcDbArc
 50
194.2500326978036
 51
270.0
  0
LINE
  5
7B
330
A
100
AcDbEntity
  8
製肘
  6
Continuous
 62
     4
100
AcDbLine
 10
-1376.106945261804
 20
94.18100000001
 30
0.0
 11
-1413.476945261804
 21
94.18100000001
 31
0.0
  0
ARC
  5
7C
330
A
100
AcDbEntity
  8
製肘
  6
Continuous
 62
     4
100
AcDbCircle
 10
-1434.844346223284
 20
144.3415990385298
 30
0.0
 40
2.01999999999551
100
AcDbArc
 50
6.481526915662241
 51
83.5184730843391
  0
ARC
  5
7D
330
A
100
AcDbEntity
  8
製肘
  6
Continuous
 62
     4
100
AcDbCircle
 10
-1416.561544300323
 20
144.3415990385298
 30
0.0
 40
2.01999999999551
100
AcDbArc
 50
96.48152691566101
 51
173.5184730843378
  0
ARC
  5
7E
330
A
100
AcDbEntity
  8
製肘
  6
Continuous
 62
     4
100
AcDbCircle
 10
-1416.561544300323
 20
101.6004009614901
 30
0.0
 40
2.01999999999551
100
AcDbArc
 50
186.4815269156606
 51
263.5184730843391
  0
ARC
  5
7F
330
A
100
AcDbEntity
  8
製肘
  6
Continuous
 62
     4
100
AcDbCircle
 10
-1434.844346223284
 20
101.6004009614901
 30
0.0
 40
2.01999999999551
100
AcDbArc
 50
276.4815269156609
 51
353.5184730843395
  0
ARC
  5
80
330
A
100
AcDbEntity
  8
製肘
  6
Continuous
 62
     4
100
AcDbCircle
 10
-1425.202945261804
 20
153.98300000001
 30
0.0
 40
12.12000000000001
100
AcDbArc
 50
194.2500326978033
 51
219.0422836754138
  0
ARC
  5
81
330
A
100
AcDbEntity
  8
製肘
  6
Continuous
 62
     4
100
AcDbCircle
 10
-1426.202945261804
 20
153.98300000001
 30
0.0
 40
12.12000000000001
100
AcDbArc
 50
320.9577163245865
 51
345.7499673021969
  0
ARC
  5
82
330
A
100
AcDbEntity
  8
製肘
  6
Continuous
 62
     4
100
AcDbCircle
 10
-1424.926329059561
 20
154.476293128209
 30
0.0
 40
12.67773293872765
100
AcDbArc
 50
231.3910390587957
 51
264.2206621064887
  0
ARC
  5
83
330
A
100
AcDbEntity
  8
製肘
  6
Continuous
 62
     4
100
AcDbCircle
 10
-1426.202945261804
 20
91.95900000001001
 30
0.0
 40
12.12000000000001
100
AcDbArc
 50
14.25003269780314
 51
39.04228367541355
  0
ARC
  5
84
330
A
100
AcDbEntity
  8
製肘
  6
Continuous
 62
     4
100
AcDbCircle
 10
-1426.221998007009
 20
91.95900000001001
 30
0.0
 40
12.12000000000001
100
AcDbArc
 50
50.95771632458655
 51
90.0
  0
ARC
  5
85
330
A
100
AcDbEntity
  8
製肘
  6
Continuous
 62
     4
100
AcDbCircle
 10
-1425.202945261804
 20
91.95900000001001
 30
0.0
 40
12.12000000000001
100
AcDbArc
 50
140.9577163245864
 51
165.7499673021969
  0
ARC
  5
86
330
A
100
AcDbEntity
  8
製肘
  6
Continuous
 62
     4
100
AcDbCircle
 10
-1461.764945261804
 20
127.52100000001
 30
0.0
 40
1.01
100
AcDbArc
 50
90.0
 51
180.0
  0
LINE
  5
87
330
A
100
AcDbEntity
  8
製肘
  6
Continuous
 62
     4
100
AcDbLine
 10
-1462.774945261804
 20
118.42100000001
 30
0.0
 11
-1462.774945261804
 21
128.52100000001
 31
0.0
  0
ARC
  5
88
330
A
100
AcDbEntity
  8
製肘
  6
Continuous
 62
     4
100
AcDbCircle
 10
-1461.764945261804
 20
118.42100000001
 30
0.0
 40
1.01
100
AcDbArc
 50
180.0
 51
270.0
  0
LINE
  5
89
330
A
100
AcDbEntity
  8
製肘
  6
Continuous
 62
     4
100
AcDbLine
 10
-1451.664945261804
 20
117.41100000001
 30
0.0
 11
-1461.764945261804
 21
117.41100000001
 31
0.0
  0
ARC
  5
8A
330
A
100
AcDbEntity
  8
製肘
  6
Continuous
 62
     4
100
AcDbCircle
 10
-1451.664945261804
 20
118.42100000001
 30
0.0
 40
1.01
100
AcDbArc
 50
270.0
 51
0.0
  0
LINE
  5
8B
330
A
100
AcDbEntity
  8
製肘
  6
Continuous
 62
     4
100
AcDbLine
 10
-1450.654945261804
 20
127.52100000001
 30
0.0
 11
-1450.654945261804
 21
122.47100000001
 31
0.0
  0
LINE
  5
8C
330
A
100
AcDbEntity
  8
製肘
  6
Continuous
 62
     4
100
AcDbLine
 10
-1461.764945261804
 20
128.53100000001
 30
0.0
 11
-1451.664945261804
 21
128.53100000001
 31
0.0
  0
ARC
  5
8D
330
A
100
AcDbEntity
  8
製肘
  6
Continuous
 62
     4
100
AcDbCircle
 10
-1451.664945261804
 20
127.52100000001
 30
0.0
 40
1.01
100
AcDbArc
 50
0.0
 51
90.0
  0
ARC
  5
8E
330
A
100
AcDbEntity
  8
製肘
  6
Continuous
 62
     4
100
AcDbCircle
 10
-1463.784945261804
 20
129.54100000001
 30
0.0
 40
1.01
100
AcDbArc
 50
270.0
 51
0.0
  0
ARC
  5
8F
330
A
100
AcDbEntity
  8
製肘
  6
Continuous
 62
     4
100
AcDbCircle
 10
-1463.784945261804
 20
116.40100000001
 30
0.0
 40
1.01
100
AcDbArc
 50
0.0
 51
90.0
  0
ARC
  5
90
330
A
100
AcDbEntity
  8
製肘
  6
Continuous
 62
     4
100
AcDbCircle
 10
-1449.644945261804
 20
116.40100000001
 30
0.0
 40
1.01
100
AcDbArc
 50
90.0
 51
180.0
  0
ARC
  5
91
330
A
100
AcDbEntity
  8
製肘
  6
Continuous
 62
     4
100
AcDbCircle
 10
-1449.644945261804
 20
129.54100000001
 30
0.0
 40
1.01
100
AcDbArc
 50
180.0
 51
270.0
  0
ARC
  5
92
330
A
100
AcDbEntity
  8
製肘
  6
Continuous
 62
     4
100
AcDbCircle
 10
-1482.974945261804
 20
131.1426443020131
 30
0.0
 40
1.01
100
AcDbArc
 50
135.0000000000046
 51
180.0
  0
LINE
  5
93
330
A
100
AcDbEntity
  8
製肘
  6
Continuous
 62
     4
100
AcDbLine
 10
-1483.689123110802
 20
131.8568221510115
 30
0.0
 11
-1466.100767412805
 21
149.4451778490084
 31
0.0
  0
ARC
  5
94
330
A
100
AcDbEntity
  8
製肘
  6
Continuous
 62
     4
100
AcDbCircle
 10
-1465.386589563807
 20
148.73100000001
 30
0.0
 40
1.01
100
AcDbArc
 50
90.0
 51
134.9999999999954
  0
LINE
  5
95
330
A
100
AcDbEntity
  8
製肘
  6
Continuous
 62
     4
100
AcDbLine
 10
-1429.740767412805
 20
131.8568221510115
 30
0.0
 11
-1447.329123110803
 21
149.4451778490084
 31
0.0
  0
ARC
  5
96
330
A
100
AcDbEntity
  8
製肘
  6
Continuous
 62
     4
100
AcDbCircle
 10
-1448.043300959801
 20
148.73100000001
 30
0.0
 40
1.01
100
AcDbArc
 50
45.00000000000462
 51
90.0
  0
ARC
  5
97
330
A
100
AcDbEntity
  8
製肘
  6
Continuous
 62
     4
100
AcDbCircle
 10
-1430.454945261804
 20
131.1426443020131
 30
0.0
 40
1.01
100
AcDbArc
 50
0.0
 51
44.99999999999538
  0
LINE
  5
98
330
A
100
AcDbEntity
  8
製肘
  6
Continuous
 62
     4
100
AcDbLine
 10
-1465.386589563807
 20
149.74100000001
 30
0.0
 11
-1448.043300959797
 21
149.74100000001
 31
0.0
  0
LINE
  5
99
330
A
100
AcDbEntity
  8
製肘
  6
Continuous
 62
     4
100
AcDbLine
 10
-1483.689123110802
 20
114.0851778490084
 30
0.0
 11
-1466.100767412805
 21
96.49682215101158
 31
0.0
  0
ARC
  5
9A
330
A
100
AcDbEntity
  8
製肘
  6
Continuous
 62
     4
100
AcDbCircle
 10
-1482.974945261804
 20
114.7993556980068
 30
0.0
 40
1.01
100
AcDbArc
 50
180.0
 51
224.9999999999954
  0
ARC
  5
9B
330
A
100
AcDbEntity
  8
製肘
  6
Continuous
 62
     4
100
AcDbCircle
 10
-1465.386589563807
 20
97.21100000001001
 30
0.0
 40
1.01
100
AcDbArc
 50
225.0000000000046
 51
270.0
  0
ARC
  5
9C
330
A
100
AcDbEntity
  8
製肘
  6
Continuous
 62
     4
100
AcDbCircle
 10
-1448.043300959801
 20
97.21100000001001
 30
0.0
 40
1.01
100
AcDbArc
 50
270.0
 51
314.9999999999954
  0
LINE
  5
9D
330
A
100
AcDbEntity
  8
製肘
  6
Continuous
 62
     4
100
AcDbLine
 10
-1429.740767412805
 20
114.0851778490084
 30
0.0
 11
-1447.329123110803
 21
96.49682215101158
 31
0.0
  0
ARC
  5
9E
330
A
100
AcDbEntity
  8
製肘
  6
Continuous
 62
     4
100
AcDbCircle
 10
-1430.454945261804
 20
114.7993556980068
 30
0.0
 40
1.01
100
AcDbArc
 50
315.0000000000046
 51
0.0
  0
LINE
  5
9F
330
A
100
AcDbEntity
  8
製肘
  6
Continuous
 62
     4
100
AcDbLine
 10
-1483.984945261804
 20
114.7993556980068
 30
0.0
 11
-1483.984945261804
 21
123.47100000001
 31
0.0
  0
LINE
  5
A0
330
A
100
AcDbEntity
  8
製肘
  6
Continuous
 62
     4
100
AcDbLine
 10
-1465.386589563807
 20
96.20100000001
 30
0.0
 11
-1448.043300959801
 21
96.20100000001
 31
0.0
  0
LINE
  5
A1
330
A
100
AcDbEntity
  8
製肘
  6
Continuous
 62
     4
100
AcDbLine
 10
-1429.444945261804
 20
114.7993556980068
 30
0.0
 11
-1429.444945261804
 21
123.47100000001
 31
0.0
  0
LINE
  5
A2
330
A
100
AcDbEntity
  8
製肘
  6
Continuous
 62
     4
100
AcDbLine
 10
-1462.774945261804
 20
129.54100000001
 30
0.0
 11
-1462.774945261804
 21
145.70100000001
 31
0.0
  0
ARC
  5
A3
330
A
100
AcDbEntity
  8
製肘
  6
Continuous
 62
     4
100
AcDbCircle
 10
-1461.764945261804
 20
145.70100000001
 30
0.0
 40
1.01
100
AcDbArc
 50
90.0
 51
180.0
  0
LINE
  5
A4
330
A
100
AcDbEntity
  8
製肘
  6
Continuous
 62
     4
100
AcDbLine
 10
-1461.764945261804
 20
146.71100000001
 30
0.0
 11
-1451.664945261804
 21
146.71100000001
 31
0.0
  0
LINE
  5
A5
330
A
100
AcDbEntity
  8
製肘
  6
Continuous
 62
     4
100
AcDbLine
 10
-1450.654945261804
 20
129.54100000001
 30
0.0
 11
-1450.654945261804
 21
145.70100000001
 31
0.0
  0
ARC
  5
A6
330
A
100
AcDbEntity
  8
製肘
  6
Continuous
 62
     4
100
AcDbCircle
 10
-1451.664945261804
 20
145.70100000001
 30
0.0
 40
1.01
100
AcDbArc
 50
0.0
 51
90.0
  0
LINE
  5
A7
330
A
100
AcDbEntity
  8
製肘
  6
Continuous
 62
     4
100
AcDbLine
 10
-1433.484945261804
 20
128.53100000001
 30
0.0
 11
-1449.644945261804
 21
128.53100000001
 31
0.0
  0
ARC
  5
A8
330
A
100
AcDbEntity
  8
製肘
  6
Continuous
 62
     4
100
AcDbCircle
 10
-1433.484945261804
 20
127.52100000001
 30
0.0
 40
1.01
100
AcDbArc
 50
0.0
 51
90.0
  0
LINE
  5
A9
330
A
100
AcDbEntity
  8
製肘
  6
Continuous
 62
     4
100
AcDbLine
 10
-1433.484945261804
 20
117.41100000001
 30
0.0
 11
-1449.644945261804
 21
117.41100000001
 31
0.0
  0
LINE
  5
AA
330
A
100
AcDbEntity
  8
製肘
  6
Continuous
 62
     4
100
AcDbLine
 10
-1432.474945261804
 20
118.42100000001
 30
0.0
 11
-1432.474945261803
 21
123.47100000001
 31
0.0
  0
ARC
  5
AB
330
A
100
AcDbEntity
  8
製肘
  6
Continuous
 62
     4
100
AcDbCircle
 10
-1433.484945261804
 20
118.42100000001
 30
0.0
 40
1.01
100
AcDbArc
 50
270.0
 51
0.0
  0
LINE
  5
AC
330
A
100
AcDbEntity
  8
製肘
  6
Continuous
 62
     4
100
AcDbLine
 10
-1450.654945261804
 20
116.40100000001
 30
0.0
 11
-1450.654945261804
 21
100.24100000001
 31
0.0
  0
ARC
  5
AD
330
A
100
AcDbEntity
  8
製肘
  6
Continuous
 62
     4
100
AcDbCircle
 10
-1451.664945261804
 20
100.24100000001
 30
0.0
 40
1.01
100
AcDbArc
 50
270.0
 51
0.0
  0
LINE
  5
AE
330
A
100
AcDbEntity
  8
製肘
  6
Continuous
 62
     4
100
AcDbLine
 10
-1462.774945261804
 20
116.40100000001
 30
0.0
 11
-1462.774945261804
 21
100.24100000001
 31
0.0
  0
LINE
  5
AF
330
A
100
AcDbEntity
  8
製肘
  6
Continuous
 62
     4
100
AcDbLine
 10
-1461.764945261804
 20
99.23100000000999
 30
0.0
 11
-1451.664945261804
 21
99.23100000000999
 31
0.0
  0
ARC
  5
B0
330
A
100
AcDbEntity
  8
製肘
  6
Continuous
 62
     4
100
AcDbCircle
 10
-1461.764945261804
 20
100.24100000001
 30
0.0
 40
1.01
100
AcDbArc
 50
180.0
 51
270.0
  0
LINE
  5
B1
330
A
100
AcDbEntity
  8
製肘
  6
Continuous
 62
     4
100
AcDbLine
 10
-1479.944945261804
 20
117.41100000001
 30
0.0
 11
-1463.784945261804
 21
117.41100000001
 31
0.0
  0
ARC
  5
B2
330
A
100
AcDbEntity
  8
製肘
  6
Continuous
 62
     4
100
AcDbCircle
 10
-1479.944945261804
 20
118.42100000001
 30
0.0
 40
1.01
100
AcDbArc
 50
180.0
 51
270.0
  0
LINE
  5
B3
330
A
100
AcDbEntity
  8
製肘
  6
Continuous
 62
     4
100
AcDbLine
 10
-1479.944945261804
 20
128.53100000001
 30
0.0
 11
-1463.784945261804
 21
128.53100000001
 31
0.0
  0
LINE
  5
B4
330
A
100
AcDbEntity
  8
製肘
  6
Continuous
 62
     4
100
AcDbLine
 10
-1480.954945261804
 20
118.42100000001
 30
0.0
 11
-1480.954945261804
 21
123.47100000001
 31
0.0
  0
ARC
  5
B5
330
A
100
AcDbEntity
  8
製肘
  6
Continuous
 62
     4
100
AcDbCircle
 10
-1479.944945261804
 20
127.52100000001
 30
0.0
 40
1.01
100
AcDbArc
 50
90.0
 51
180.0
  0
ARC
  5
B6
330
A
100
AcDbEntity
  8
製肘
  6
Continuous
 62
     4
100
AcDbCircle
 10
-1420.950945261804
 20
131.1426443020131
 30
0.0
 40
1.01
100
AcDbArc
 50
135.0000000000046
 51
180.0
  0
ARC
  5
B7
330
A
100
AcDbEntity
  8
製肘
  6
Continuous
 62
     4
100
AcDbCircle
 10
-1420.950945261804
 20
114.7993556980068
 30
0.0
 40
1.01
100
AcDbArc
 50
180.0
 51
224.9999999999954
  0
LINE
  5
B8
330
A
100
AcDbEntity
  8
製肘
  6
Continuous
 62
     4
100
AcDbLine
 10
-1421.960945261804
 20
114.7993556980068
 30
0.0
 11
-1421.960945261804
 21
123.4710000000099
 31
0.0
  0
ARC
  5
B9
330
A
100
AcDbEntity
  8
製肘
  6
Continuous
 62
     4
100
AcDbCircle
 10
-1417.920945261804
 20
127.52100000001
 30
0.0
 40
1.01
100
AcDbArc
 50
90.0
 51
180.0
  0
LINE
  5
BA
330
A
100
AcDbEntity
  8
製肘
  6
Continuous
 62
     4
100
AcDbLine
 10
-1418.930945261804
 20
118.42100000001
 30
0.0
 11
-1418.930945261804
 21
123.47100000001
 31
0.0
  0
ARC
  5
BB
330
A
100
AcDbEntity
  8
製肘
  6
Continuous
 62
     4
100
AcDbCircle
 10
-1417.920945261804
 20
118.42100000001
 30
0.0
 40
1.01
100
AcDbArc
 50
180.0
 51
270.0
  0
LINE
  5
BC
330
A
100
AcDbEntity
  8
製肘
  6
Continuous
 62
     4
100
AcDbLine
 10
-1421.665123110802
 20
114.0851778490084
 30
0.0
 11
-1404.076767412805
 21
96.49682215101158
 31
0.0
  0
LINE
  5
BD
330
A
100
AcDbEntity
  8
製肘
  6
Continuous
 62
     4
100
AcDbLine
 10
-1417.920945261804
 20
117.41100000001
 30
0.0
 11
-1401.760945261804
 21
117.41100000001
 31
0.0
  0
LINE
  5
BE
330
A
100
AcDbEntity
  8
製肘
  6
Continuous
 62
     4
100
AcDbLine
 10
-1417.920945261804
 20
128.53100000001
 30
0.0
 11
-1401.760945261804
 21
128.53100000001
 31
0.0
  0
LINE
  5
BF
330
A
100
AcDbEntity
  8
製肘
  6
Continuous
 62
     4
100
AcDbLine
 10
-1421.665123110802
 20
131.8568221510115
 30
0.0
 11
-1404.076767412805
 21
149.4451778490084
 31
0.0
  0
ARC
  5
C0
330
A
100
AcDbEntity
  8
製肘
  6
Continuous
 62
     4
100
AcDbCircle
 10
-1389.640945261804
 20
127.52100000001
 30
0.0
 40
1.01
100
AcDbArc
 50
0.0
 51
90.0
  0
LINE
  5
C1
330
A
100
AcDbEntity
  8
製肘
  6
Continuous
 62
     4
100
AcDbLine
 10
-1389.640945261804
 20
128.53100000001
 30
0.0
 11
-1399.740945261804
 21
128.53100000001
 31
0.0
  0
ARC
  5
C2
330
A
100
AcDbEntity
  8
製肘
  6
Continuous
 62
     4
100
AcDbCircle
 10
-1399.740945261804
 20
127.52100000001
 30
0.0
 40
1.01
100
AcDbArc
 50
90.0
 51
180.0
  0
ARC
  5
C3
330
A
100
AcDbEntity
  8
製肘
  6
Continuous
 62
     4
100
AcDbCircle
 10
-1387.620945261804
 20
129.54100000001
 30
0.0
 40
1.01
100
AcDbArc
 50
180.0
 51
270.0
  0
ARC
  5
C4
330
A
100
AcDbEntity
  8
製肘
  6
Continuous
 62
     4
100
AcDbCircle
 10
-1401.760945261804
 20
129.54100000001
 30
0.0
 40
1.01
100
AcDbArc
 50
270.0
 51
0.0
  0
ARC
  5
C5
330
A
100
AcDbEntity
  8
製肘
  6
Continuous
 62
     4
100
AcDbCircle
 10
-1386.019300959801
 20
148.73100000001
 30
0.0
 40
1.01
100
AcDbArc
 50
45.00000000000461
 51
90.0
  0
ARC
  5
C6
330
A
100
AcDbEntity
  8
製肘
  6
Continuous
 62
     4
100
AcDbCircle
 10
-1403.362589563807
 20
148.73100000001
 30
0.0
 40
1.01
100
AcDbArc
 50
90.0
 51
134.9999999999954
  0
LINE
  5
C7
330
A
100
AcDbEntity
  8
製肘
  6
Continuous
 62
     4
100
AcDbLine
 10
-1386.019300959801
 20
149.74100000001
 30
0.0
 11
-1403.36258956381
 21
149.74100000001
 31
0.0
  0
LINE
  5
C8
330
A
100
AcDbEntity
  8
製肘
  6
Continuous
 62
     4
100
AcDbLine
 10
-1388.630945261804
 20
129.54100000001
 30
0.0
 11
-1388.630945261804
 21
145.70100000001
 31
0.0
  0
ARC
  5
C9
330
A
100
AcDbEntity
  8
製肘
  6
Continuous
 62
     4
100
AcDbCircle
 10
-1389.640945261804
 20
145.70100000001
 30
0.0
 40
1.01
100
AcDbArc
 50
0.0
 51
90.0
  0
LINE
  5
CA
330
A
100
AcDbEntity
  8
製肘
  6
Continuous
 62
     4
100
AcDbLine
 10
-1389.640945261804
 20
146.71100000001
 30
0.0
 11
-1399.740945261804
 21
146.71100000001
 31
0.0
  0
LINE
  5
CB
330
A
100
AcDbEntity
  8
製肘
  6
Continuous
 62
     4
100
AcDbLine
 10
-1400.750945261804
 20
129.54100000001
 30
0.0
 11
-1400.750945261804
 21
145.70100000001
 31
0.0
  0
ARC
  5
CC
330
A
100
AcDbEntity
  8
製肘
  6
Continuous
 62
     4
100
AcDbCircle
 10
-1399.740945261804
 20
145.70100000001
 30
0.0
 40
1.01
100
AcDbArc
 50
90.0
 51
180.0
  0
ARC
  5
CD
330
A
100
AcDbEntity
  8
製肘
  6
Continuous
 62
     4
100
AcDbCircle
 10
-1389.640945261804
 20
118.42100000001
 30
0.0
 40
1.01
100
AcDbArc
 50
270.0
 51
0.0
  0
LINE
  5
CE
330
A
100
AcDbEntity
  8
製肘
  6
Continuous
 62
     4
100
AcDbLine
 10
-1399.740945261804
 20
117.41100000001
 30
0.0
 11
-1389.640945261804
 21
117.41100000001
 31
0.0
  0
ARC
  5
CF
330
A
100
AcDbEntity
  8
製肘
  6
Continuous
 62
     4
100
AcDbCircle
 10
-1399.740945261804
 20
118.42100000001
 30
0.0
 40
1.01
100
AcDbArc
 50
180.0
 51
270.0
  0
ARC
  5
D0
330
A
100
AcDbEntity
  8
製肘
  6
Continuous
 62
     4
100
AcDbCircle
 10
-1387.620945261804
 20
116.40100000001
 30
0.0
 40
1.01
100
AcDbArc
 50
90.0
 51
180.0
  0
ARC
  5
D1
330
A
100
AcDbEntity
  8
製肘
  6
Continuous
 62
     4
100
AcDbCircle
 10
-1401.760945261804
 20
116.40100000001
 30
0.0
 40
1.01
100
AcDbArc
 50
0.0
 51
90.0
  0
ARC
  5
D2
330
A
100
AcDbEntity
  8
製肘
  6
Continuous
 62
     4
100
AcDbCircle
 10
-1403.362589563807
 20
97.21100000001001
 30
0.0
 40
1.01
100
AcDbArc
 50
225.0000000000046
 51
270.0
  0
LINE
  5
D3
330
A
100
AcDbEntity
  8
製肘
  6
Continuous
 62
     4
100
AcDbLine
 10
-1386.019300959801
 20
96.20100000001
 30
0.0
 11
-1403.362589563807
 21
96.20100000001
 31
0.0
  0
LINE
  5
D4
330
A
100
AcDbEntity
  8
製肘
  6
Continuous
 62
     4
100
AcDbLine
 10
-1400.750945261804
 20
116.40100000001
 30
0.0
 11
-1400.750945261804
 21
100.24100000001
 31
0.0
  0
ARC
  5
D5
330
A
100
AcDbEntity
  8
製肘
  6
Continuous
 62
     4
100
AcDbCircle
 10
-1399.740945261804
 20
100.24100000001
 30
0.0
 40
1.01
100
AcDbArc
 50
180.0
 51
270.0
  0
LINE
  5
D6
330
A
100
AcDbEntity
  8
製肘
  6
Continuous
 62
     4
100
AcDbLine
 10
-1388.630945261804
 20
116.40100000001
 30
0.0
 11
-1388.630945261804
 21
100.24100000001
 31
0.0
  0
LINE
  5
D7
330
A
100
AcDbEntity
  8
製肘
  6
Continuous
 62
     4
100
AcDbLine
 10
-1389.640945261804
 20
99.23100000000999
 30
0.0
 11
-1399.740945261804
 21
99.23100000000999
 31
0.0
  0
ARC
  5
D8
330
A
100
AcDbEntity
  8
製肘
  6
Continuous
 62
     4
100
AcDbCircle
 10
-1389.640945261804
 20
100.24100000001
 30
0.0
 40
1.01
100
AcDbArc
 50
270.0
 51
0.0
  0
LINE
  5
D9
330
A
100
AcDbEntity
  8
製肘
  6
Continuous
 62
     4
100
AcDbLine
 10
-1367.716767412805
 20
114.0851778490084
 30
0.0
 11
-1385.305123110802
 21
96.49682215101158
 31
0.0
  0
ARC
  5
DA
330
A
100
AcDbEntity
  8
製肘
  6
Continuous
 62
     4
100
AcDbCircle
 10
-1386.019300959801
 20
97.21100000001001
 30
0.0
 40
1.01
100
AcDbArc
 50
270.0
 51
314.9999999999954
  0
LINE
  5
DB
330
A
100
AcDbEntity
  8
製肘
  6
Continuous
 62
     4
100
AcDbLine
 10
-1371.460945261804
 20
117.41100000001
 30
0.0
 11
-1387.620945261804
 21
117.41100000001
 31
0.0
  0
LINE
  5
DC
330
A
100
AcDbEntity
  8
製肘
  6
Continuous
 62
     4
100
AcDbLine
 10
-1371.460945261804
 20
128.53100000001
 30
0.0
 11
-1387.620945261804
 21
128.53100000001
 31
0.0
  0
ARC
  5
DD
330
A
100
AcDbEntity
  8
製肘
  6
Continuous
 62
     4
100
AcDbCircle
 10
-1368.430945261804
 20
131.1426443020131
 30
0.0
 40
1.01
100
AcDbArc
 50
0.0
 51
44.99999999999538
  0
ARC
  5
DE
330
A
100
AcDbEntity
  8
製肘
  6
Continuous
 62
     4
100
AcDbCircle
 10
-1368.430945261804
 20
114.7993556980068
 30
0.0
 40
1.01
100
AcDbArc
 50
315.0000000000046
 51
0.0
  0
LINE
  5
DF
330
A
100
AcDbEntity
  8
製肘
  6
Continuous
 62
     4
100
AcDbLine
 10
-1367.420945261804
 20
114.7993556980068
 30
0.0
 11
-1367.420945261804
 21
123.47100000001
 31
0.0
  0
ARC
  5
E0
330
A
100
AcDbEntity
  8
製肘
  6
Continuous
 62
     4
100
AcDbCircle
 10
-1371.460945261804
 20
118.42100000001
 30
0.0
 40
1.01
100
AcDbArc
 50
270.0
 51
0.0
  0
LINE
  5
E1
330
A
100
AcDbEntity
  8
製肘
  6
Continuous
 62
     4
100
AcDbLine
 10
-1370.450945261804
 20
118.42100000001
 30
0.0
 11
-1370.450945261803
 21
123.47100000001
 31
0.0
  0
ARC
  5
E2
330
A
100
AcDbEntity
  8
製肘
  6
Continuous
 62
     4
100
AcDbCircle
 10
-1371.460945261804
 20
127.52100000001
 30
0.0
 40
1.01
100
AcDbArc
 50
0.0
 51
90.0
  0
LINE
  5
E3
330
A
100
AcDbEntity
  8
製肘
  6
Continuous
 62
     4
100
AcDbLine
 10
-1400.750945261804
 20
127.52100000001
 30
0.0
 11
-1400.750945261804
 21
122.47100000001
 31
0.0
  0
LINE
  5
E4
330
A
100
AcDbEntity
  8
製肘
  6
Continuous
 62
     4
100
AcDbLine
 10
-1388.630945261804
 20
118.42100000001
 30
0.0
 11
-1388.630945261804
 21
123.47100000001
 31
0.0
  0
LINE
  5
E5
330
A
100
AcDbEntity
  8
製肘
  6
Continuous
 62
     4
100
AcDbLine
 10
-1367.716767412805
 20
131.8568221510115
 30
0.0
 11
-1385.305123110802
 21
149.4451778490084
 31
0.0
  0
LINE
  5
E6
330
A
100
AcDbEntity
  8
製肘
  6
Continuous
 62
     4
100
AcDbLine
 10
-1445.099945261781
 20
25.4100000000101
 30
0.0
 11
-1468.329945261826
 21
25.4100000000101
 31
0.0
  0
LINE
  5
E7
330
A
100
AcDbEntity
  8
製肘
  6
Continuous
 62
     4
100
AcDbLine
 10
-1480.467957246919
 20
45.64524849167968
 30
0.0
 11
-1480.592633071525
 21
42.07500000001009
 31
0.0
  0
ARC
  5
E8
330
A
100
AcDbEntity
  8
製肘
  6
Continuous
 62
     4
100
AcDbCircle
 10
-1479.458572511629
 20
45.61000000001009
 30
0.0
 40
1.01
100
AcDbArc
 50
90.0
 51
177.9999999999965
  0
LINE
  5
E9
330
A
100
AcDbEntity
  8
製肘
  6
Continuous
 62
     4
100
AcDbLine
 10
-1478.688891861563
 20
45.64524849167968
 30
0.0
 11
-1478.813567686169
 21
42.07500000001009
 31
0.0
  0
ARC
  5
EA
330
A
100
AcDbEntity
  8
製肘
  6
Continuous
 62
     4
100
AcDbCircle
 10
-1477.679507126273
 20
45.61000000001009
 30
0.0
 40
1.01
100
AcDbArc
 50
90.0
 51
177.9999999999965
  0
LINE
  5
EB
330
A
100
AcDbEntity
  8
製肘
  6
Continuous
 62
     4
100
AcDbLine
 10
-1476.187693657923
 20
45.64524849167968
 30
0.0
 11
-1476.312369482529
 21
42.07500000001009
 31
0.0
  0
ARC
  5
EC
330
A
100
AcDbEntity
  8
製肘
  6
Continuous
 62
     4
100
AcDbCircle
 10
-1475.178308922633
 20
45.61000000001009
 30
0.0
 40
1.01
100
AcDbArc
 50
90.0
 51
177.999999999996
  0
LINE
  5
ED
330
A
100
AcDbEntity
  8
製肘
  6
Continuous
 62
     4
100
AcDbLine
 10
-1432.961933276689
 20
45.64524849167968
 30
0.0
 11
-1432.837257452083
 21
42.07500000001009
 31
0.0
  0
ARC
  5
EE
330
A
100
AcDbEntity
  8
製肘
  6
Continuous
 62
     4
100
AcDbCircle
 10
-1433.971318011979
 20
45.61000000001009
 30
0.0
 40
1.01
100
AcDbArc
 50
2.00000000000352
 51
90.0
  0
LINE
  5
EF
330
A
100
AcDbEntity
  8
製肘
  6
Continuous
 62
     4
100
AcDbLine
 10
-1434.740998662045
 20
45.64524849167968
 30
0.0
 11
-1434.616322837438
 21
42.07500000001009
 31
0.0
  0
ARC
  5
F0
330
A
100
AcDbEntity
  8
製肘
  6
Continuous
 62
     4
100
AcDbCircle
 10
-1435.750383397334
 20
45.61000000001009
 30
0.0
 40
1.01
100
AcDbArc
 50
2.00000000000352
 51
90.0
  0
LINE
  5
F1
330
A
100
AcDbEntity
  8
製肘
  6
Continuous
 62
     4
100
AcDbLine
 10
-1437.242196865685
 20
45.64524849167968
 30
0.0
 11
-1437.117521041079
 21
42.07500000001009
 31
0.0
  0
ARC
  5
F2
330
A
100
AcDbEntity
  8
製肘
  6
Continuous
 62
     4
100
AcDbCircle
 10
-1438.251581600974
 20
45.61000000001009
 30
0.0
 40
1.01
100
AcDbArc
 50
2.000000000003976
 51
90.0
  0
LINE
  5
F3
330
A
100
AcDbEntity
  8
製肘
  6
Continuous
 62
     4
100
AcDbLine
 10
-1406.305945261826
 20
25.4100000000101
 30
0.0
 11
-1383.075945261782
 21
25.4100000000101
 31
0.0
  0
LINE
  5
F4
330
A
100
AcDbEntity
  8
製肘
  6
Continuous
 62
     4
100
AcDbLine
 10
-1370.937933276689
 20
45.64524849167968
 30
0.0
 11
-1370.813257452083
 21
42.07500000001009
 31
0.0
  0
ARC
  5
F5
330
A
100
AcDbEntity
  8
製肘
  6
Continuous
 62
     4
100
AcDbCircle
 10
-1371.947318011978
 20
45.61000000001009
 30
0.0
 40
1.01
100
AcDbArc
 50
2.00000000000352
 51
90.0
  0
LINE
  5
F6
330
A
100
AcDbEntity
  8
製肘
  6
Continuous
 62
     4
100
AcDbLine
 10
-1372.716998662045
 20
45.64524849167968
 30
0.0
 11
-1372.592322837439
 21
42.07500000001009
 31
0.0
  0
ARC
  5
F7
330
A
100
AcDbEntity
  8
製肘
  6
Continuous
 62
     4
100
AcDbCircle
 10
-1373.726383397334
 20
45.61000000001009
 30
0.0
 40
1.01
100
AcDbArc
 50
2.00000000000352
 51
90.0
  0
LINE
  5
F8
330
A
100
AcDbEntity
  8
製肘
  6
Continuous
 62
     4
100
AcDbLine
 10
-1375.218196865685
 20
45.64524849167968
 30
0.0
 11
-1375.093521041079
 21
42.07500000001009
 31
0.0
  0
ARC
  5
F9
330
A
100
AcDbEntity
  8
製肘
  6
Continuous
 62
     4
100
AcDbCircle
 10
-1376.227581600974
 20
45.61000000001009
 30
0.0
 40
1.01
100
AcDbArc
 50
2.000000000003976
 51
90.0
  0
LINE
  5
FA
330
A
100
AcDbEntity
  8
製肘
  6
Continuous
 62
     4
100
AcDbLine
 10
-1418.443957246919
 20
45.64524849167968
 30
0.0
 11
-1418.568633071525
 21
42.07500000001009
 31
0.0
  0
ARC
  5
FB
330
A
100
AcDbEntity
  8
製肘
  6
Continuous
 62
     4
100
AcDbCircle
 10
-1417.434572511629
 20
45.61000000001009
 30
0.0
 40
1.01
100
AcDbArc
 50
90.0
 51
177.9999999999965
  0
LINE
  5
FC
330
A
100
AcDbEntity
  8
製肘
  6
Continuous
 62
     4
100
AcDbLine
 10
-1416.664891861563
 20
45.64524849167968
 30
0.0
 11
-1416.789567686169
 21
42.07500000001009
 31
0.0
  0
ARC
  5
FD
330
A
100
AcDbEntity
  8
製肘
  6
Continuous
 62
     4
100
AcDbCircle
 10
-1415.655507126273
 20
45.61000000001009
 30
0.0
 40
1.01
100
AcDbArc
 50
90.0
 51
177.9999999999965
  0
LINE
  5
FE
330
A
100
AcDbEntity
  8
製肘
  6
Continuous
 62
     4
100
AcDbLine
 10
-1414.163693657923
 20
45.64524849167968
 30
0.0
 11
-1414.288369482529
 21
42.07500000001009
 31
0.0
  0
ARC
  5
FF
330
A
100
AcDbEntity
  8
製肘
  6
Continuous
 62
     4
100
AcDbCircle
 10
-1413.154308922634
 20
45.61000000001009
 30
0.0
 40
1.01
100
AcDbArc
 50
90.0
 51
177.999999999996
  0
LINE
  5
100
330
A
100
AcDbEntity
  8
製肘
  6
Continuous
 62
     4
100
AcDbLine
 10
-1474.926480411266
 20
31.47000000000998
 30
0.0
 11
-1474.926480411266
 21
42.07500000000997
 31
0.0
  0
LINE
  5
101
330
A
100
AcDbEntity
  8
製肘
  6
Continuous
 62
     4
100
AcDbLine
 10
-1480.420433336756
 20
31.47000000000998
 30
0.0
 11
-1480.605544300319
 21
42.07500000000997
 31
0.0
  0
LINE
  5
102
330
A
100
AcDbEntity
  8
製肘
  6
Continuous
 62
     4
100
AcDbLine
 10
-1474.926480411266
 20
31.47000000000998
 30
0.0
 11
-1480.420433336756
 21
31.47000000000998
 31
0.0
  0
LINE
  5
103
330
A
100
AcDbEntity
  8
製肘
  6
Continuous
 62
     4
100
AcDbLine
 10
-1438.503410112341
 20
31.47000000000998
 30
0.0
 11
-1438.503410112341
 21
42.07500000000997
 31
0.0
  0
LINE
  5
104
330
A
100
AcDbEntity
  8
製肘
  6
Continuous
 62
     4
100
AcDbLine
 10
-1433.009457186852
 20
31.47000000000998
 30
0.0
 11
-1432.824346223289
 21
42.07500000000997
 31
0.0
  0
LINE
  5
105
330
A
100
AcDbEntity
  8
製肘
  6
Continuous
 62
     4
100
AcDbLine
 10
-1438.503410112341
 20
31.47000000000998
 30
0.0
 11
-1433.009457186852
 21
31.47000000000998
 31
0.0
  0
LINE
  5
106
330
A
100
AcDbEntity
  8
製肘
  6
Continuous
 62
     4
100
AcDbLine
 10
-1418.396433336756
 20
31.47000000000998
 30
0.0
 11
-1418.581544300319
 21
42.07500000000997
 31
0.0
  0
LINE
  5
107
330
A
100
AcDbEntity
  8
製肘
  6
Continuous
 62
     4
100
AcDbLine
 10
-1412.902480411266
 20
31.47000000000998
 30
0.0
 11
-1412.902480411266
 21
42.07500000000997
 31
0.0
  0
LINE
  5
108
330
A
100
AcDbEntity
  8
製肘
  6
Continuous
 62
     4
100
AcDbLine
 10
-1412.902480411266
 20
31.47000000000998
 30
0.0
 11
-1418.396433336756
 21
31.47000000000998
 31
0.0
  0
LINE
  5
109
330
A
100
AcDbEntity
  8
製肘
  6
Continuous
 62
     4
100
AcDbLine
 10
-1376.479410112341
 20
31.47000000000998
 30
0.0
 11
-1376.479410112341
 21
42.07500000000997
 31
0.0
  0
LINE
  5
10A
330
A
100
AcDbEntity
  8
製肘
  6
Continuous
 62
     4
100
AcDbLine
 10
-1376.479410112341
 20
31.47000000000998
 30
0.0
 11
-1370.985457186852
 21
31.47000000000998
 31
0.0
  0
LINE
  5
10B
330
A
100
AcDbEntity
  8
製肘
  6
Continuous
 62
     4
100
AcDbLine
 10
-1370.985457186852
 20
31.47000000000998
 30
0.0
 11
-1370.800346223288
 21
42.07500000000997
 31
0.0
  0
LINE
  5
10C
330
A
100
AcDbEntity
  8
製肘
  6
Continuous
 62
     4
100
AcDbLine
 10
-1427.460201136434
 20
36.01500000001009
 30
0.0
 11
-1425.202945261804
 21
36.01500000001009
 31
0.0
  0
LINE
  5
10D
330
A
100
AcDbEntity
  8
製肘
  6
Continuous
 62
     4
100
AcDbLine
 10
-1481.854726956716
 20
42.07500000001009
 30
0.0
 11
-1481.854726956716
 21
7.987500000010093
 31
0.0
  0
LINE
  5
10E
330
A
100
AcDbEntity
  8
製肘
  6
Continuous
 62
     4
100
AcDbLine
 10
-1468.554701462579
 20
-25.37999999998991
 30
0.0
 11
-1468.442323362192
 21
0.3750000000100393
 31
0.0
  0
LINE
  5
10F
330
A
100
AcDbEntity
  8
製肘
  6
Continuous
 62
     4
100
AcDbLine
 10
-1444.875189061028
 20
-25.37999999998991
 30
0.0
 11
-1445.005595146005
 21
4.506683499697603
 31
0.0
  0
LINE
  5
110
330
A
100
AcDbEntity
  8
製肘
  6
Continuous
 62
     4
100
AcDbLine
 10
-1427.731230672661
 20
-25.37999999998991
 30
0.0
 11
-1427.582494951561
 21
8.707500000010094
 31
0.0
  0
LINE
  5
111
330
A
100
AcDbEntity
  8
製肘
  6
Continuous
 62
     4
100
AcDbLine
 10
-1423.674659850946
 20
-25.37999999998991
 30
0.0
 11
-1423.823395572047
 21
8.707500000010094
 31
0.0
  0
LINE
  5
112
330
A
100
AcDbEntity
  8
製肘
  6
Continuous
 62
     4
100
AcDbLine
 10
-1406.530701462579
 20
-25.37999999998991
 30
0.0
 11
-1406.418323362192
 21
0.3750000000100393
 31
0.0
  0
LINE
  5
113
330
A
100
AcDbEntity
  8
製肘
  6
Continuous
 62
     4
100
AcDbLine
 10
-1382.851189061028
 20
-25.37999999998991
 30
0.0
 11
-1382.963567161415
 21
0.3750000000100399
 31
0.0
  0
LINE
  5
114
330
A
100
AcDbEntity
  8
製肘
  6
Continuous
 62
     4
100
AcDbLine
 10
-1369.551163566891
 20
42.07500000001009
 30
0.0
 11
-1369.551163566891
 21
7.987500000010093
 31
0.0
  0
LINE
  5
115
330
A
100
AcDbEntity
  8
製肘
  6
Continuous
 62
     4
100
AcDbLine
 10
-1444.875189061028
 20
-25.37999999998991
 30
0.0
 11
-1427.731230672661
 21
-25.37999999998991
 31
0.0
  0
LINE
  5
116
330
A
100
AcDbEntity
  8
製肘
  6
Continuous
 62
     4
100
AcDbLine
 10
-1423.674659850946
 20
-25.37999999998991
 30
0.0
 11
-1406.530701462579
 21
-25.37999999998991
 31
0.0
  0
LINE
  5
117
330
A
100
AcDbEntity
  8
製肘
  6
Continuous
 62
     4
100
AcDbLine
 10
-1233.214945261804
 20
94.47847144221038
 30
0.0
 11
-1267.302445261804
 21
94.32973572110983
 31
0.0
  0
LINE
  5
118
330
A
100
AcDbEntity
  8
製肘
  6
Continuous
 62
     4
100
AcDbLine
 10
-1233.214945261804
 20
98.33121830510753
 30
0.0
 11
-1267.302445261804
 21
98.33121830510753
 31
0.0
  0
LINE
  5
119
330
A
100
AcDbEntity
  8
製肘
  6
Continuous
 62
     4
100
AcDbLine
 10
-1233.214945261804
 20
111.631243799212
 30
0.0
 11
-1258.969945261804
 21
111.743621899599
 31
0.0
  0
LINE
  5
11A
330
A
100
AcDbEntity
  8
製肘
  6
Continuous
 62
     4
100
AcDbLine
 10
-1233.214945261804
 20
134.3107562008079
 30
0.0
 11
-1258.969945261804
 21
134.1983781004209
 31
0.0
  0
LINE
  5
11B
330
A
100
AcDbEntity
  8
製肘
  6
Continuous
 62
     4
100
AcDbLine
 10
-1233.214945261804
 20
147.6107816949125
 30
0.0
 11
-1267.302445261804
 21
147.6107816949125
 31
0.0
  0
LINE
  5
11C
330
A
100
AcDbEntity
  8
製肘
  6
Continuous
 62
     4
100
AcDbLine
 10
-1233.214945261804
 20
151.4635285578096
 30
0.0
 11
-1267.302445261804
 21
151.6122642789101
 31
0.0
  0
LINE
  5
11D
330
A
100
AcDbEntity
  8
製肘
  6
Continuous
 62
     4
100
AcDbLine
 10
-1233.214945261804
 20
94.47847144221032
 30
0.0
 11
-1233.214945261804
 21
111.631243799212
 31
0.0
  0
LINE
  5
11E
330
A
100
AcDbEntity
  8
製肘
  6
Continuous
 62
     4
100
AcDbLine
 10
-1233.214945261804
 20
134.3107562008079
 30
0.0
 11
-1233.214945261804
 21
151.4635285578097
 31
0.0
  0
LINE
  5
11F
330
A
100
AcDbEntity
  8
製肘
  6
Continuous
 62
     4
100
AcDbLine
 10
-1485.802945261804
 20
141.25700000001
 30
0.0
 11
-1485.802945261804
 21
120.1180220765083
 31
0.0
  0
LINE
  5
120
330
A
100
AcDbEntity
  8
製肘
  6
Continuous
 62
     4
100
AcDbLine
 10
-1365.602945261804
 20
141.25700000001
 30
0.0
 11
-1365.602945261804
 21
122.47100000001
 31
0.0
  0
LINE
  5
121
330
A
100
AcDbEntity
  8
製肘
  6
Continuous
 62
     4
100
AcDbLine
 10
-1485.678269437197
 20
45.64524849167968
 30
0.0
 11
-1485.802945261804
 21
42.07500000001009
 31
0.0
  0
ARC
  5
122
330
A
100
AcDbEntity
  8
製肘
  6
Continuous
 62
     4
100
AcDbCircle
 10
-1484.668884701908
 20
45.61000000001009
 30
0.0
 40
1.01
100
AcDbArc
 50
90.0
 51
177.9999999999965
  0
LINE
  5
123
330
A
100
AcDbEntity
  8
製肘
  6
Continuous
 62
     4
100
AcDbLine
 10
-1485.505473819602
 20
-25.37999999998991
 30
0.0
 11
-1485.654209540703
 21
8.707500000010037
 31
0.0
  0
LINE
  5
124
330
A
100
AcDbEntity
  8
製肘
  6
Continuous
 62
     4
100
AcDbLine
 10
-1365.72762108641
 20
45.64524849167968
 30
0.0
 11
-1365.602945261804
 21
42.07500000001009
 31
0.0
  0
ARC
  5
125
330
A
100
AcDbEntity
  8
製肘
  6
Continuous
 62
     4
100
AcDbCircle
 10
-1366.737005821699
 20
45.61000000001009
 30
0.0
 40
1.01
100
AcDbArc
 50
2.00000000000352
 51
90.0
  0
LINE
  5
126
330
A
100
AcDbEntity
  8
製肘
  6
Continuous
 62
     4
100
AcDbLine
 10
-1365.900416704005
 20
-25.37999999998991
 30
0.0
 11
-1365.751680982905
 21
8.707500000010035
 31
0.0
  0
LINE
  5
127
330
A
100
AcDbEntity
  8
製肘
  6
Continuous
 62
     4
100
AcDbLine
 10
-1485.505473819602
 20
-25.37999999998991
 30
0.0
 11
-1468.554701462579
 21
-25.37999999998991
 31
0.0
  0
LINE
  5
128
330
A
100
AcDbEntity
  8
製肘
  6
Continuous
 62
     4
100
AcDbLine
 10
-1382.851189061028
 20
-25.37999999998991
 30
0.0
 11
-1365.900416704005
 21
-25.37999999998991
 31
0.0
  0
LINE
  5
129
330
A
100
AcDbEntity
  8
製肘
  6
Continuous
 62
     4
100
AcDbLine
 10
-1485.802945261804
 20
42.07500000001009
 30
0.0
 11
-1425.202945261804
 21
42.07500000001009
 31
0.0
  0
LINE
  5
12A
330
A
100
AcDbEntity
  8
製肘
  6
Continuous
 62
     4
100
AcDbLine
 10
-1484.668884701908
 20
46.62000000001009
 30
0.0
 11
-1425.202945261803
 21
46.62000000001009
 31
0.0
  0
ARC
  5
12B
330
A
100
AcDbEntity
  8
製肘
  6
Continuous
 62
     4
100
AcDbCircle
 10
-1475.298945261804
 20
150.75100000001
 30
0.0
 40
1.01
100
AcDbArc
 50
90.0
 51
165.7499673021964
  0
ARC
  5
12C
330
A
100
AcDbEntity
  8
製肘
  6
Continuous
 62
     4
100
AcDbCircle
 10
-1484.792945261804
 20
141.25700000001
 30
0.0
 40
1.01
100
AcDbArc
 50
104.2500326978069
 51
180.0
  0
ARC
  5
12D
330
A
100
AcDbEntity
  8
製肘
  6
Continuous
 62
     4
100
AcDbCircle
 10
-1478.383544300324
 20
144.3415990385298
 30
0.0
 40
2.01999999999551
100
AcDbArc
 50
96.48152691566101
 51
173.518473084337
  0
ARC
  5
12E
330
A
100
AcDbEntity
  8
製肘
  6
Continuous
 62
     4
100
AcDbCircle
 10
-1488.024945261804
 20
153.98300000001
 30
0.0
 40
12.12000000000001
100
AcDbArc
 50
320.9577163245865
 51
345.7499673021967
  0
ARC
  5
12F
330
A
100
AcDbEntity
  8
製肘
  6
Continuous
 62
     4
100
AcDbCircle
 10
-1488.024945261804
 20
153.98300000001
 30
0.0
 40
12.12000000000001
100
AcDbArc
 50
284.2500326978047
 51
309.0422836754143
  0
ARC
  5
130
330
A
100
AcDbEntity
  8
製肘
  6
Continuous
 62
     4
100
AcDbCircle
 10
-1475.298945261804
 20
95.19100000001001
 30
0.0
 40
1.01
100
AcDbArc
 50
194.2500326978036
 51
270.0
  0
ARC
  5
131
330
A
100
AcDbEntity
  8
製肘
  6
Continuous
 62
     4
100
AcDbCircle
 10
-1484.792945261804
 20
104.6850000000099
 30
0.0
 40
1.01
100
AcDbArc
 50
180.0
 51
255.7499673021932
  0
ARC
  5
132
330
A
100
AcDbEntity
  8
製肘
  6
Continuous
 62
     4
100
AcDbCircle
 10
-1478.383544300324
 20
101.6004009614901
 30
0.0
 40
2.01999999999551
100
AcDbArc
 50
186.4815269156613
 51
263.5184730843391
  0
ARC
  5
133
330
A
100
AcDbEntity
  8
製肘
  6
Continuous
 62
     4
100
AcDbCircle
 10
-1488.024945261804
 20
91.95900000001001
 30
0.0
 40
12.12000000000001
100
AcDbArc
 50
14.25003269780337
 51
39.04228367541355
  0
ARC
  5
134
330
A
100
AcDbEntity
  8
製肘
  6
Continuous
 62
     4
100
AcDbCircle
 10
-1488.024945261804
 20
91.95900000001001
 30
0.0
 40
12.12000000000001
100
AcDbArc
 50
50.95771632458564
 51
75.74996730219542
  0
ARC
  5
135
330
A
100
AcDbEntity
  8
製肘
  6
Continuous
 62
     4
100
AcDbCircle
 10
-1376.106945261804
 20
150.75100000001
 30
0.0
 40
1.01
100
AcDbArc
 50
14.25003269780367
 51
90.0
  0
ARC
  5
136
330
A
100
AcDbEntity
  8
製肘
  6
Continuous
 62
     4
100
AcDbCircle
 10
-1366.612945261804
 20
141.25700000001
 30
0.0
 40
1.01
100
AcDbArc
 50
0.0
 51
75.74996730219322
  0
ARC
  5
137
330
A
100
AcDbEntity
  8
製肘
  6
Continuous
 62
     4
100
AcDbCircle
 10
-1373.022346223284
 20
144.3415990385298
 30
0.0
 40
2.01999999999551
100
AcDbArc
 50
6.481526915661322
 51
83.51847308433262
  0
ARC
  5
138
330
A
100
AcDbEntity
  8
製肘
  6
Continuous
 62
     4
100
AcDbCircle
 10
-1363.380945261804
 20
153.98300000001
 30
0.0
 40
12.12000000000001
100
AcDbArc
 50
194.2500326978036
 51
219.0422836754144
  0
ARC
  5
139
330
A
100
AcDbEntity
  8
製肘
  6
Continuous
 62
     4
100
AcDbCircle
 10
-1363.380945261804
 20
153.98300000001
 30
0.0
 40
12.12000000000001
100
AcDbArc
 50
230.9577163245855
 51
255.7499673021976
  0
ARC
  5
13A
330
A
100
AcDbEntity
  8
製肘
  6
Continuous
 62
     4
100
AcDbCircle
 10
-1376.106945261804
 20
95.19100000001001
 30
0.0
 40
1.01
100
AcDbArc
 50
270.0
 51
345.7499673021965
  0
ARC
  5
13B
330
A
100
AcDbEntity
  8
製肘
  6
Continuous
 62
     4
100
AcDbCircle
 10
-1366.612945261804
 20
104.6850000000099
 30
0.0
 40
1.01
100
AcDbArc
 50
284.2500326978068
 51
0.0
  0
ARC
  5
13C
330
A
100
AcDbEntity
  8
製肘
  6
Continuous
 62
     4
100
AcDbCircle
 10
-1373.022346223284
 20
101.6004009614901
 30
0.0
 40
2.01999999999551
100
AcDbArc
 50
276.4815269156609
 51
353.5184730843387
  0
ARC
  5
13D
330
A
100
AcDbEntity
  8
製肘
  6
Continuous
 62
     4
100
AcDbCircle
 10
-1363.380945261804
 20
91.95900000000994
 30
0.0
 40
12.12000000000001
100
AcDbArc
 50
104.2500326978025
 51
129.0422836754146
  0
ARC
  5
13E
330
A
100
AcDbEntity
  8
製肘
  6
Continuous
 62
     4
100
AcDbCircle
 10
-1363.380945261804
 20
91.95900000000994
 30
0.0
 40
12.12000000000001
100
AcDbArc
 50
140.9577163245855
 51
165.7499673021961
  0
TEXT
  5
13F
330
A
100
AcDbEntity
  8
製肘
  6
Continuous
 62
     7
100
AcDbText
 10
-1408.0
 20
-113.55603061167
 30
0.0
 40
6.0
  1
ローンマーカーＬＧＭ－０９
 41
1.288546255506607
  7
EXCADSTD
 72
     5
 11
-1291.0
 21
-113.55603061167
 31
0.0
100
AcDbText
  0
LINE
  5
140
330
A
100
AcDbEntity
  8
製肘
  6
Continuous
 62
     4
100
AcDbLine
 10
-1470.557473819602
 20
-25.37999999998991
 30
0.0
 11
-1470.706209540702
 21
8.707500000010552
 31
0.0
  0
LINE
  5
141
330
A
100
AcDbEntity
  8
製肘
  6
Continuous
 62
     4
100
AcDbLine
 10
-1442.872416704006
 20
-25.37999999998991
 30
0.0
 11
-1442.723680982906
 21
8.707500000010552
 31
0.0
  0
LINE
  5
142
330
A
100
AcDbEntity
  8
製肘
  6
Continuous
 62
     4
100
AcDbLine
 10
-1408.533473819602
 20
-25.37999999998991
 30
0.0
 11
-1408.682209540702
 21
8.707500000010552
 31
0.0
  0
LINE
  5
143
330
A
100
AcDbEntity
  8
製肘
  6
Continuous
 62
     4
100
AcDbLine
 10
-1380.848416704006
 20
-25.37999999998991
 30
0.0
 11
-1380.699680982905
 21
8.707500000010552
 31
0.0
  0
LINE
  5
144
330
A
100
AcDbEntity
  8
製肘
  6
Continuous
 62
     4
100
AcDbLine
 10
-1233.214945261804
 20
109.6284714422121
 30
0.0
 11
-1261.902629488098
 21
109.5032970116995
 31
0.0
  0
LINE
  5
145
330
A
100
AcDbEntity
  8
製肘
  6
Continuous
 62
     4
100
AcDbLine
 10
-1233.214945261804
 20
136.3135285578078
 30
0.0
 11
-1267.302445261804
 21
136.4622642789083
 31
0.0
  0
ARC
  5
278
330
A
100
AcDbEntity
  8
製肘
  6
Continuous
 62
     4
100
AcDbCircle
 10
-1426.202945261804
 20
153.9830000000097
 30
0.0
 40
12.11999999999969
100
AcDbArc
 50
270.0
 51
309.0422836754143
  0
ARC
  5
27B
330
A
100
AcDbEntity
  8
製肘
  6
Continuous
 62
     4
100
AcDbCircle
 10
-1424.92632905956
 20
91.46570687180995
 30
0.0
 40
12.67773293872887
100
AcDbArc
 50
95.7793378935149
 51
128.6089609412046
  0
LINE
  5
27C
330
A
100
AcDbEntity
  8
製肘
  6
Continuous
 62
     4
100
AcDbLine
 10
-1426.202945261803
 20
46.62000000001009
 30
0.0
 11
-1366.737005821699
 21
46.62000000001009
 31
0.0
  0
LINE
  5
27D
330
A
100
AcDbEntity
  8
製肘
  6
Continuous
 62
     4
100
AcDbLine
 10
-1426.202945261804
 20
42.07500000001009
 30
0.0
 11
-1365.602945261804
 21
42.07500000001009
 31
0.0
  0
LINE
  5
27E
330
A
100
AcDbEntity
  8
製肘
  6
Continuous
 62
     4
100
AcDbLine
 10
-1426.202945261804
 20
36.01500000001009
 30
0.0
 11
-1423.945689387173
 21
36.01500000001009
 31
0.0
  0
DIMENSION
  5
294
330
A
100
AcDbEntity
  8
寸法
  6
Continuous
100
AcDbDimension
280
     0
  2
*D8
 10
-1365.602945261804
 20
167.695461691398
 30
0.0
 11
-1425.702945261804
 21
167.695461691398
 31
0.0
 70
    32
  1
{\C7;<>}
 71
     5
 42
120.2
 73
     0
 74
     0
 75
     0
  3
STANDARD
100
AcDbAlignedDimension
 13
-1485.802945261804
 23
141.25700000001
 33
0.0
 14
-1365.602945261804
 24
141.25700000001
 34
0.0
100
AcDbRotatedDimension
  0
LINE
  5
2A2
330
A
100
AcDbEntity
  8
製肘
  6
Continuous
 62
     4
100
AcDbLine
 10
-1485.802945261804
 20
121.1180220765083
 30
0.0
 11
-1485.802945261804
 21
104.6850000000099
 31
0.0
  0
LINE
  5
2A3
330
A
100
AcDbEntity
  8
製肘
  6
Continuous
 62
     4
100
AcDbLine
 10
-1483.984945261804
 20
122.47100000001
 30
0.0
 11
-1483.984945261804
 21
131.1426443020131
 31
0.0
  0
LINE
  5
2A4
330
A
100
AcDbEntity
  8
製肘
  6
Continuous
 62
     4
100
AcDbLine
 10
-1480.954945261804
 20
122.47100000001
 30
0.0
 11
-1480.954945261804
 21
127.52100000001
 31
0.0
  0
LINE
  5
2A5
330
A
100
AcDbEntity
  8
製肘
  6
Continuous
 62
     4
100
AcDbLine
 10
-1450.654945261804
 20
123.47100000001
 30
0.0
 11
-1450.654945261804
 21
118.42100000001
 31
0.0
  0
LINE
  5
2A6
330
A
100
AcDbEntity
  8
製肘
  6
Continuous
 62
     4
100
AcDbLine
 10
-1432.474945261803
 20
122.47100000001
 30
0.0
 11
-1432.474945261804
 21
127.52100000001
 31
0.0
  0
LINE
  5
2A7
330
A
100
AcDbEntity
  8
製肘
  6
Continuous
 62
     4
100
AcDbLine
 10
-1429.444945261804
 20
122.47100000001
 30
0.0
 11
-1429.444945261804
 21
131.1426443020131
 31
0.0
  0
LINE
  5
2A8
330
A
100
AcDbEntity
  8
製肘
  6
Continuous
 62
     4
100
AcDbLine
 10
-1421.960945261804
 20
122.4710000000099
 30
0.0
 11
-1421.960945261804
 21
131.1426443020131
 31
0.0
  0
LINE
  5
2A9
330
A
100
AcDbEntity
  8
製肘
  6
Continuous
 62
     4
100
AcDbLine
 10
-1400.750945261804
 20
123.47100000001
 30
0.0
 11
-1400.750945261804
 21
118.42100000001
 31
0.0
  0
LINE
  5
2AA
330
A
100
AcDbEntity
  8
製肘
  6
Continuous
 62
     4
100
AcDbLine
 10
-1388.630945261804
 20
122.47100000001
 30
0.0
 11
-1388.630945261804
 21
127.52100000001
 31
0.0
  0
LINE
  5
2AB
330
A
100
AcDbEntity
  8
製肘
  6
Continuous
 62
     4
100
AcDbLine
 10
-1370.450945261803
 20
122.47100000001
 30
0.0
 11
-1370.450945261804
 21
127.52100000001
 31
0.0
  0
LINE
  5
2AC
330
A
100
AcDbEntity
  8
製肘
  6
Continuous
 62
     4
100
AcDbLine
 10
-1418.930945261804
 20
122.47100000001
 30
0.0
 11
-1418.930945261804
 21
127.52100000001
 31
0.0
  0
LINE
  5
2AD
330
A
100
AcDbEntity
  8
製肘
  6
Continuous
 62
     4
100
AcDbLine
 10
-1367.420945261804
 20
122.47100000001
 30
0.0
 11
-1367.420945261804
 21
131.1426443020131
 31
0.0
  0
LINE
  5
2AE
330
A
100
AcDbEntity
  8
製肘
  6
Continuous
 62
     4
100
AcDbLine
 10
-1365.602945261804
 20
123.47100000001
 30
0.0
 11
-1365.602945261804
 21
104.6850000000099
 31
0.0
  0
LINE
  5
2AF
330
A
100
AcDbEntity
  8
製肘
  6
Continuous
 62
     4
100
AcDbLine
 10
-1305.214945261804
 20
122.47100000001
 30
0.0
 11
-1305.214945261804
 21
150.6269394401143
 31
0.0
  0
LINE
  5
2B0
330
A
100
AcDbEntity
  8
製肘
  6
Continuous
 62
     4
100
AcDbLine
 10
-1284.004945261804
 20
122.47100000001
 30
0.0
 11
-1284.004945261804
 21
134.0860000000323
 31
0.0
  0
LINE
  5
2B1
330
A
100
AcDbEntity
  8
製肘
  6
Continuous
 62
     4
100
AcDbLine
 10
-1300.669945261804
 20
122.47100000001
 30
0.0
 11
-1300.669945261804
 21
151.76100000001
 31
0.0
  0
DIMENSION
  5
2C7
330
A
100
AcDbEntity
  8
寸法
  6
Continuous
100
AcDbDimension
280
     0
  2
*D9
 10
-1508.138345690854
 20
94.18100000001002
 30
0.0
 11
-1508.138345690854
 21
122.9710000000097
 31
0.0
 70
    32
  1
{\C7;<>}
 71
     5
 42
57.57999999999999
 73
     0
 74
     0
 75
     0
  3
STANDARD
100
AcDbAlignedDimension
 13
-1475.298945261804
 23
151.76100000001
 33
0.0
 14
-1475.298945261804
 24
94.18100000001
 34
0.0
 50
90.0
100
AcDbRotatedDimension
  0
LINE
  5
2F3
330
A
100
AcDbEntity
  8
製肘
  6
Continuous
 62
     4
100
AcDbLine
 10
-1485.654209540703
 20
7.987500000010038
 30
0.0
 11
-1485.802945261804
 21
42.07500000000997
 31
0.0
  0
LINE
  5
2F4
330
A
100
AcDbEntity
  8
製肘
  6
Continuous
 62
     4
100
AcDbLine
 10
-1481.854726956716
 20
8.707500000010094
 30
0.0
 11
-1481.854726956716
 21
-25.37999999998991
 31
0.0
  0
LINE
  5
2F5
330
A
100
AcDbEntity
  8
製肘
  6
Continuous
 62
     4
100
AcDbLine
 10
-1470.706209540702
 20
7.987500000010553
 30
0.0
 11
-1470.854945261802
 21
42.075000000011
 31
0.0
  0
LINE
  5
2F6
330
A
100
AcDbEntity
  8
製肘
  6
Continuous
 62
     4
100
AcDbLine
 10
-1445.005595146005
 20
3.786683499697603
 30
0.0
 11
-1445.099945261802
 21
25.41000000000999
 31
0.0
  0
LINE
  5
2F7
330
A
100
AcDbEntity
  8
製肘
  6
Continuous
 62
     4
100
AcDbLine
 10
-1442.723680982906
 20
7.987500000010553
 30
0.0
 11
-1442.574945261805
 21
42.075000000011
 31
0.0
  0
LINE
  5
2F8
330
A
100
AcDbEntity
  8
製肘
  6
Continuous
 62
     4
100
AcDbLine
 10
-1427.582494951561
 20
7.987500000010093
 30
0.0
 11
-1427.43375923046
 21
42.07500000001009
 31
0.0
  0
LINE
  5
2F9
330
A
100
AcDbEntity
  8
製肘
  6
Continuous
 62
     4
100
AcDbLine
 10
-1423.823395572047
 20
7.987500000010093
 30
0.0
 11
-1423.972131293147
 21
42.07500000001009
 31
0.0
  0
LINE
  5
2FA
330
A
100
AcDbEntity
  8
製肘
  6
Continuous
 62
     4
100
AcDbLine
 10
-1408.682209540702
 20
7.987500000010553
 30
0.0
 11
-1408.830945261802
 21
42.075000000011
 31
0.0
  0
LINE
  5
2FB
330
A
100
AcDbEntity
  8
製肘
  6
Continuous
 62
     4
100
AcDbLine
 10
-1406.418323362192
 20
-0.3449999999899607
 30
0.0
 11
-1406.305945261805
 21
25.41000000000999
 31
0.0
  0
LINE
  5
2FC
330
A
100
AcDbEntity
  8
製肘
  6
Continuous
 62
     4
100
AcDbLine
 10
-1382.963567161415
 20
-0.3449999999899601
 30
0.0
 11
-1383.075945261802
 21
25.41000000000999
 31
0.0
  0
LINE
  5
2FD
330
A
100
AcDbEntity
  8
製肘
  6
Continuous
 62
     4
100
AcDbLine
 10
-1380.699680982905
 20
7.987500000010553
 30
0.0
 11
-1380.550945261805
 21
42.075000000011
 31
0.0
  0
LINE
  5
2FE
330
A
100
AcDbEntity
  8
製肘
  6
Continuous
 62
     4
100
AcDbLine
 10
-1369.551163566891
 20
8.707500000010094
 30
0.0
 11
-1369.551163566891
 21
-25.37999999998991
 31
0.0
  0
LINE
  5
2FF
330
A
100
AcDbEntity
  8
製肘
  6
Continuous
 62
     4
100
AcDbLine
 10
-1365.751680982905
 20
7.987500000010036
 30
0.0
 11
-1365.602945261804
 21
42.07500000000997
 31
0.0
  0
LINE
  5
300
330
A
100
AcDbEntity
  8
製肘
  6
Continuous
 62
     4
100
AcDbLine
 10
-1468.442323362192
 20
-0.3449999999899607
 30
0.0
 11
-1468.329945261805
 21
25.41000000000999
 31
0.0
  0
DIMENSION
  5
315
330
A
100
AcDbEntity
  8
寸法
  6
Continuous
100
AcDbDimension
280
     0
  2
*D10
 10
-1508.138345690854
 20
-25.3799999999899
 30
0.0
 11
-1508.138345690854
 21
10.62000000000986
 31
0.0
 70
    32
  1
{\C7;<>}
 71
     5
 42
72.0
 73
     0
 74
     0
 75
     0
  3
STANDARD
100
AcDbAlignedDimension
 13
-1484.668884701908
 23
46.62000000001009
 33
0.0
 14
-1484.668884701908
 24
-25.37999999998991
 34
0.0
 50
90.0
100
AcDbRotatedDimension
  0
LINE
  5
323
330
A
100
AcDbEntity
  8
製肘
  6
Continuous
 62
     4
100
AcDbLine
 10
-1266.582445261804
 20
151.6122642789101
 30
0.0
 11
-1300.669945261804
 21
151.7610000000107
 31
0.0
  0
LINE
  5
324
330
A
100
AcDbEntity
  8
製肘
  6
Continuous
 62
     4
100
AcDbLine
 10
-1266.582445261804
 20
147.6107816949125
 30
0.0
 11
-1300.669945261804
 21
147.6107816949125
 31
0.0
  0
LINE
  5
325
330
A
100
AcDbEntity
  8
製肘
  6
Continuous
 62
     4
100
AcDbLine
 10
-1258.249945261804
 20
134.1983781004209
 30
0.0
 11
-1284.004945261804
 21
134.0860000000339
 31
0.0
  0
LINE
  5
326
330
A
100
AcDbEntity
  8
製肘
  6
Continuous
 62
     4
100
AcDbLine
 10
-1266.582445261804
 20
136.4622642789083
 30
0.0
 11
-1300.669945261805
 21
136.6110000000087
 31
0.0
  0
LINE
  5
327
330
A
100
AcDbEntity
  8
製肘
  6
Continuous
 62
     4
100
AcDbLine
 10
-1258.249945261804
 20
111.743621899599
 30
0.0
 11
-1284.004945261804
 21
111.855999999986
 31
0.0
  0
LINE
  5
328
330
A
100
AcDbEntity
  8
製肘
  6
Continuous
 62
     4
100
AcDbLine
 10
-1261.182629488098
 20
109.5032970116995
 30
0.0
 11
-1300.669945261805
 21
109.3310000000112
 31
0.0
  0
LINE
  5
329
330
A
100
AcDbEntity
  8
製肘
  6
Continuous
 62
     4
100
AcDbLine
 10
-1266.582445261804
 20
98.33121830510753
 30
0.0
 11
-1300.669945261804
 21
98.33121830510753
 31
0.0
  0
LINE
  5
32A
330
A
100
AcDbEntity
  8
製肘
  6
Continuous
 62
     4
100
AcDbLine
 10
-1266.582445261804
 20
94.32973572110983
 30
0.0
 11
-1300.669945261804
 21
94.18100000000931
 31
0.0
  0
DIMENSION
  5
32B
330
A
100
AcDbEntity
  8
寸法
  6
Continuous
100
AcDbDimension
280
     0
  2
*D11
 10
-1233.214945261804
 20
167.665461691398
 30
0.0
 11
-1269.214945261804
 21
167.665461691398
 31
0.0
 70
    32
  1
{\C7;<>}
 71
     5
 42
72.0
 73
     0
 74
     0
 75
     0
  3
STANDARD
100
AcDbAlignedDimension
 13
-1305.214945261804
 23
150.6269394401143
 33
0.0
 14
-1233.214945261804
 24
150.6269394401143
 34
0.0
100
AcDbRotatedDimension
  0
ENDSEC
  0
SECTION
  2
OBJECTS
  0
DICTIONARY
  5
19
330
0
100
AcDbDictionary
281
     1
  3
ACAD_CIP_PREVIOUS_PRODUCT_INFO
350
1BB
  3
ACAD_COLOR
350
198
  3
ACAD_DETAILVIEWSTYLE
350
1B2
  3
ACAD_GROUP
350
1A
  3
ACAD_LAYOUT
350
1B4
  3
ACAD_MATERIAL
350
166
  3
ACAD_MLEADERSTYLE
350
1AD
  3
ACAD_MLINESTYLE
350
1B
  3
ACAD_PLOTSETTINGS
350
1B5
  3
ACAD_PLOTSTYLENAME
350
164
  3
ACAD_SCALELIST
350
19B
  3
ACAD_SECTIONVIEWSTYLE
350
1AF
  3
ACAD_TABLESTYLE
350
199
  3
ACAD_VISUALSTYLE
350
17F
  3
ACDB_RECOMPOSE_DATA
350
3E4
  3
AcDbVariableDictionary
350
1CE
  0
DICTIONARY
  5
1C7
330
2
100
AcDbDictionary
280
     1
281
     1
  3
ACAD_LAYERSTATES
360
1C8
  0
DICTIONARY
  5
1BC
330
14
100
AcDbDictionary
280
     1
281
     1
  3
ADSK_XREC_LAYER_RECONCILED
360
1BD
  0
DICTIONARY
  5
1BE
330
25
100
AcDbDictionary
280
     1
281
     1
  3
ADSK_XREC_LAYER_RECONCILED
360
1BF
  0
DICTIONARY
  5
1C0
330
26
100
AcDbDictionary
280
     1
281
     1
  3
ADSK_XREC_LAYER_RECONCILED
360
1C1
  0
DICTIONARY
  5
1C2
330
27
100
AcDbDictionary
280
     1
281
     1
  3
ADSK_XREC_LAYER_RECONCILED
360
1C3
  0
DICTIONARY
  5
279
330
A
100
AcDbDictionary
280
     1
281
     1
  3
ACAD_SORTENTS
360
27A
  0
XRECORD
  5
1BB
102
{ACAD_REACTORS
330
19
102
}
330
19
100
AcDbXrecord
280
     1
300
ACDLT
300
2013
300
ACDLT_F_S
  0
DICTIONARY
  5
198
102
{ACAD_REACTORS
330
19
102
}
330
19
100
AcDbDictionary
281
     1
  0
DICTIONARY
  5
1B2
102
{ACAD_REACTORS
330
19
102
}
330
19
100
AcDbDictionary
281
     1
  3
Imperial24
350
1B3
  0
DICTIONARY
  5
1A
102
{ACAD_REACTORS
330
19
102
}
330
19
100
AcDbDictionary
281
     1
  0
DICTIONARY
  5
1B4
102
{ACAD_REACTORS
330
19
102
}
330
19
100
AcDbDictionary
281
     1
  3
Model
350
1B6
  3
レイアウト1
350
1B7
  0
DICTIONARY
  5
166
102
{ACAD_REACTORS
330
19
102
}
330
19
100
AcDbDictionary
281
     1
  3
ByBlock
350
16F
  3
ByLayer
350
167
  3
Global
350
177
  0
DICTIONARY
  5
1AD
102
{ACAD_REACTORS
330
19
102
}
330
19
100
AcDbDictionary
281
     1
  3
Standard
350
1AE
  0
DICTIONARY
  5
1B
102
{ACAD_REACTORS
330
19
102
}
330
19
100
AcDbDictionary
281
     1
  3
STANDARD
350
1C
  0
DICTIONARY
  5
1B5
102
{ACAD_REACTORS
330
19
102
}
330
19
100
AcDbDictionary
281
     1
  0
ACDBDICTIONARYWDFLT
  5
164
102
{ACAD_REACTORS
330
19
102
}
330
19
100
AcDbDictionary
281
     1
  3
Normal
350
165
100
AcDbDictionaryWithDefault
340
165
  0
DICTIONARY
  5
19B
102
{ACAD_REACTORS
330
19
102
}
330
19
100
AcDbDictionary
281
     1
  3
A0
350
19C
  3
A1
350
19D
  3
A2
350
19E
  3
A3
350
19F
  3
A4
350
1A0
  3
A5
350
1A1
  3
A6
350
1A2
  3
A7
350
1A3
  3
A8
350
1A4
  3
A9
350
1A5
  3
B0
350
1A6
  3
B1
350
1A7
  3
B2
350
1A8
  3
B3
350
1A9
  3
B4
350
1AA
  3
B5
350
1AB
  3
B6
350
1AC
  0
DICTIONARY
  5
1AF
102
{ACAD_REACTORS
330
19
102
}
330
19
100
AcDbDictionary
281
     1
  3
Imperial24
350
1B1
  0
DICTIONARY
  5
199
102
{ACAD_REACTORS
330
19
102
}
330
19
100
AcDbDictionary
281
     1
  3
Standard
350
19A
  0
DICTIONARY
  5
17F
102
{ACAD_REACTORS
330
19
102
}
330
19
100
AcDbDictionary
281
     1
  3
2dWireframe
350
185
  3
Basic
350
184
  3
Brighten
350
18B
  3
ColorChange
350
18F
  3
Conceptual
350
188
  3
Dim
350
18A
  3
EdgeColorOff
350
197
  3
Facepattern
350
18E
  3
Flat
350
180
  3
FlatWithEdges
350
181
  3
Gouraud
350
182
  3
GouraudWithEdges
350
183
  3
Hidden
350
187
  3
JitterOff
350
195
  3
Linepattern
350
18D
  3
OverhangOff
350
196
  3
Realistic
350
189
  3
Shaded
350
194
  3
Shaded with edges
350
193
  3
Shades of Gray
350
190
  3
Sketchy
350
191
  3
Thicken
350
18C
  3
Wireframe
350
186
  3
X-Ray
350
192
  0
XRECORD
  5
3E4
102
{ACAD_REACTORS
330
19
102
}
330
19
100
AcDbXrecord
280
     1
 90
        1
330
19A
  0
DICTIONARY
  5
1CE
102
{ACAD_REACTORS
330
19
102
}
330
19
100
AcDbDictionary
281
     1
  3
CANNOSCALE
350
1D4
  3
CMLEADERSTYLE
350
1D0
  3
CTABLESTYLE
350
1CF
  3
CVIEWDETAILSTYLE
350
1D1
  3
CVIEWSECTIONSTYLE
350
1D2
  3
LAYEREVAL
350
1D6
  3
LAYERNOTIFY
350
1D7
  3
LIGHTINGUNITS
350
1D5
  3
MSLTSCALE
350
1D3
  0
DICTIONARY
  5
1C8
102
{ACAD_REACTORS
330
1C7
102
}
330
1C7
100
AcDbDictionary
281
     1
  0
XRECORD
  5
1BD
102
{ACAD_REACTORS
330
1BC
102
}
330
1BC
100
AcDbXrecord
280
     1
290
     1
  0
XRECORD
  5
1BF
102
{ACAD_REACTORS
330
1BE
102
}
330
1BE
100
AcDbXrecord
280
     1
290
     1
  0
XRECORD
  5
1C1
102
{ACAD_REACTORS
330
1C0
102
}
330
1C0
100
AcDbXrecord
280
     1
290
     1
  0
XRECORD
  5
1C3
102
{ACAD_REACTORS
330
1C2
102
}
330
1C2
100
AcDbXrecord
280
     1
290
     1
  0
SORTENTSTABLE
  5
27A
102
{ACAD_REACTORS
330
279
102
}
330
279
100
AcDbSortentsTable
330
A
331
2AD
  5
EC
331
97
  5
9D
331
D6
  5
E2
331
10D
  5
11E
331
2A9
  5
F2
331
2A5
  5
91
331
93
  5
99
331
D2
  5
DE
331
109
  5
119
331
105
  5
115
331
144
  5
324
331
8F
  5
95
331
CE
  5
DA
331
5C
  5
5F
331
CA
  5
D6
331
101
  5
111
331
140
  5
2FB
331
58
  5
59
331
8B
  5
90
331
300
  5
121
331
C6
  5
D2
331
FD
  5
10D
331
13C
  5
2F7
331
87
  5
8C
331
138
  5
2F3
331
83
  5
87
331
C2
  5
CE
331
F9
  5
109
331
27D
  5
2A3
331
2FC
  5
12B
331
2F8
  5
125
331
F5
  5
105
331
134
  5
2AF
331
7F
  5
82
331
BE
  5
CA
331
F1
  5
101
331
130
  5
2AB
331
7B
  5
7E
331
BA
  5
C5
331
2F4
  5
11F
331
B6
  5
C0
331
12C
  5
2A7
331
128
  5
294
331
B2
  5
BB
331
124
  5
146
331
AE
  5
B7
331
ED
  5
FD
331
E9
  5
F9
331
120
  5
140
331
77
  5
7A
331
AA
  5
B2
331
73
  5
76
331
A6
  5
AE
331
E5
  5
F5
331
11C
  5
13A
331
327
  5
135
331
323
  5
13B
331
A2
  5
AA
331
E1
  5
EE
331
6F
  5
72
331
118
  5
132
331
114
  5
12C
331
2B0
  5
5A
331
6B
  5
6E
331
9E
  5
A4
331
DD
  5
E9
331
D9
  5
E5
331
110
  5
124
331
67
  5
6A
331
9A
  5
A0
331
63
  5
66
331
2AC
  5
C6
331
96
  5
9C
331
D5
  5
E1
331
10C
  5
11C
331
2A8
  5
C3
331
2A4
  5
BE
331
92
  5
98
331
D1
  5
DD
331
5F
  5
62
331
108
  5
118
331
104
  5
114
331
143
  5
315
331
8E
  5
94
331
CD
  5
D9
331
5B
  5
5D
331
C9
  5
D5
331
100
  5
110
331
57
  5
57
331
8A
  5
8F
331
294
  5
328
331
13F
  5
2FA
331
2FF
  5
27D
331
86
  5
8B
331
C5
  5
D1
331
FC
  5
10C
331
13B
  5
2F6
331
2FB
  5
129
331
137
  5
2C7
331
82
  5
85
331
C1
  5
CD
331
F8
  5
108
331
27C
  5
2A5
331
278
  5
86
331
F4
  5
104
331
133
  5
2AE
331
7E
  5
81
331
BD
  5
C9
331
B9
  5
C4
331
F0
  5
100
331
7A
  5
7D
331
2F7
  5
2FE
331
2F3
  5
145
331
12F
  5
2AA
331
B5
  5
BF
331
12B
  5
2A6
331
127
  5
27E
331
B1
  5
BA
331
EC
  5
FC
331
123
  5
144
331
AD
  5
B6
331
E8
  5
F8
331
76
  5
79
331
A9
  5
B1
331
72
  5
75
331
2C7
  5
329
331
11F
  5
13E
331
32A
  5
131
331
326
  5
327
331
A5
  5
AD
331
E4
  5
F3
331
11B
  5
138
331
117
  5
130
331
A1
  5
A8
331
E0
  5
ED
331
6E
  5
71
331
113
  5
12A
331
6A
  5
6D
331
9D
  5
A3
331
DC
  5
E8
331
D8
  5
E4
331
66
  5
69
331
99
  5
9F
331
62
  5
65
331
2AF
  5
5E
331
10F
  5
122
331
2AB
  5
EF
331
95
  5
9B
331
D4
  5
E0
331
10B
  5
11B
331
2A7
  5
A9
331
2A3
  5
A6
331
91
  5
97
331
D0
  5
DC
331
5E
  5
61
331
107
  5
117
331
103
  5
113
331
142
  5
2FF
331
5A
  5
5C
331
8D
  5
93
331
CC
  5
D8
331
C8
  5
D4
331
89
  5
8E
331
FF
  5
10F
331
13E
  5
2F9
331
2FE
  5
12D
331
85
  5
8A
331
C4
  5
D0
331
FB
  5
10B
331
13A
  5
2F5
331
2FA
  5
300
331
136
  5
2B1
331
27B
  5
89
331
81
  5
84
331
C0
  5
CC
331
F7
  5
107
331
F3
  5
103
331
132
  5
2AD
331
7D
  5
80
331
BC
  5
C8
331
B8
  5
C2
331
79
  5
7C
331
2F6
  5
123
331
12E
  5
2A9
331
B4
  5
BD
331
12A
  5
2A4
331
126
  5
27C
331
B0
  5
B9
331
EF
  5
FF
331
EB
  5
FB
331
122
  5
143
331
AC
  5
B5
331
A8
  5
B0
331
75
  5
78
331
71
  5
74
331
E7
  5
F7
331
11E
  5
13D
331
329
  5
133
331
325
  5
137
331
A4
  5
AC
331
E3
  5
F1
331
11A
  5
136
331
116
  5
12F
331
A0
  5
A7
331
DF
  5
EB
331
6D
  5
70
331
DB
  5
E7
331
112
  5
128
331
69
  5
6C
331
9C
  5
A2
331
65
  5
68
331
98
  5
9E
331
61
  5
64
331
2AE
  5
141
331
D7
  5
E3
331
10E
  5
120
331
2AA
  5
F4
331
315
  5
32A
331
2A6
  5
B3
331
94
  5
9A
331
D3
  5
DF
331
10A
  5
11A
331
2A2
  5
13F
331
106
  5
116
331
145
  5
326
331
90
  5
96
331
CF
  5
DB
331
5D
  5
60
331
102
  5
112
331
141
  5
2FD
331
59
  5
5B
331
8C
  5
92
331
CB
  5
D7
331
88
  5
8D
331
C7
  5
D3
331
FE
  5
10E
331
13D
  5
2F8
331
139
  5
2F4
331
84
  5
88
331
C3
  5
CF
331
FA
  5
10A
331
27E
  5
11D
331
2FD
  5
323
331
2F9
  5
127
331
135
  5
2B0
331
80
  5
83
331
BF
  5
CB
331
F6
  5
106
331
F2
  5
102
331
131
  5
2AC
331
7C
  5
7F
331
BB
  5
C7
331
78
  5
7B
331
2F5
  5
2FC
331
B7
  5
C1
331
12D
  5
2A8
331
B3
  5
BC
331
129
  5
2A2
331
125
  5
147
331
AF
  5
B8
331
EE
  5
FE
331
EA
  5
FA
331
121
  5
142
331
AB
  5
B4
331
74
  5
77
331
70
  5
73
331
A7
  5
AF
331
E6
  5
F6
331
11D
  5
13C
331
328
  5
325
331
324
  5
139
331
A3
  5
AB
331
E2
  5
F0
331
119
  5
134
331
115
  5
12E
331
2B1
  5
58
331
9F
  5
A5
331
DE
  5
EA
331
6C
  5
6F
331
DA
  5
E6
331
111
  5
126
331
68
  5
6B
331
9B
  5
A1
331
64
  5
67
331
60
  5
63
  0
ACDBDETAILVIEWSTYLE
  5
1B3
102
{ACAD_REACTORS
330
1B2
102
}
330
1B2
100
AcDbModelDocViewStyle
 70
     0
  3
Imperial24
290
     0
100
AcDbDetailViewStyle
 70
     0
 71
     0
 90
        3
 71
     1
340
17
 62
   256
 40
0.24
340
0
 62
   256
 40
0.24
300

 40
0.36
280
     3
 71
     2
340
13
 90
       25
 62
   256
 71
     3
340
17
 62
   256
 40
0.24
 90
        1
 40
0.75
 90
        1
300
%<\AcVar ViewType \f "%tc1">% %<\AcVar ViewDetailId>%\PSCALE %<\AcVar ViewScale \f "%sn">%
 71
     4
340
13
 90
       25
 62
   256
340
13
 90
       25
 62
   256
280
     0
  0
LAYOUT
  5
1B6
102
{ACAD_XDICTIONARY
360
26F
102
}
102
{ACAD_REACTORS
330
1B4
102
}
330
1B4
100
AcDbPlotSettings
  1

  2
SHARP MX-2310F
  4
A4
  6

 40
5.027082920074462
 41
5.027099609375
 42
5.027069091796875
 43
5.027069091796875
 44
209.9733276367187
 45
296.9259948730469
 46
0.0
 47
0.0
 48
0.0
 49
0.0
140
0.0
141
0.0
142
1.0
143
141.7874149276091
 70
 11952
 72
     0
 73
     1
 74
     0
  7

 75
     0
147
0.0070528121308267
 76
     0
 77
     2
 78
   300
148
49635.07768898396
149
8107.747788957301
100
AcDbLayout
  1
Model
 70
     1
 71
     0
 10
0.0
 20
0.0
 11
12.0
 21
9.0
 12
0.0
 22
0.0
 32
0.0
 14
0.0
 24
0.0
 34
0.0
 15
0.0
 25
0.0
 35
0.0
146
0.0
 13
0.0
 23
0.0
 33
0.0
 16
1.0
 26
0.0
 36
0.0
 17
0.0
 27
1.0
 37
0.0
 76
     0
330
A
331
15
1001
ACAD_PSEXT
1000
SHARP MX-2310F
1000
SHARP MX-2310F
1000
192.168.1.222
1000

1070
     0
  0
LAYOUT
  5
1B7
102
{ACAD_REACTORS
330
1B4
102
}
330
1B4
100
AcDbPlotSettings
  1

  2
SHARP MX-2310F
  4

  6

 40
0.0
 41
0.0
 42
0.0
 43
0.0
 44
0.0
 45
0.0
 46
0.0
 47
0.0
 48
0.0
 49
0.0
140
0.0
141
0.0
142
1.0
143
1.0
 70
   688
 72
     0
 73
     0
 74
     5
  7

 75
    16
147
1.0
 76
     0
 77
     2
 78
   300
148
0.0
149
0.0
100
AcDbLayout
  1
レイアウト1
 70
     0
 71
     1
 10
0.0
 20
0.0
 11
12.0
 21
9.0
 12
0.0
 22
0.0
 32
0.0
 14
1.000000000000000E+20
 24
1.000000000000000E+20
 34
1.000000000000000E+20
 15
-1.000000000000000E+20
 25
-1.000000000000000E+20
 35
-1.000000000000000E+20
146
0.0
 13
0.0
 23
0.0
 33
0.0
 16
1.0
 26
0.0
 36
0.0
 17
0.0
 27
1.0
 37
0.0
 76
     0
330
B
  0
MATERIAL
  5
16F
102
{ACAD_XDICTIONARY
360
170
102
}
102
{ACAD_REACTORS
330
166
102
}
330
166
100
AcDbMaterial
  1
ByBlock
 72
     0
 43
0.0208333333333333
 43
0.0
 43
0.0
 43
0.0
 43
0.0
 43
0.0208333333333333
 43
0.0
 43
0.0
 43
0.0
 43
0.0
 43
1.0
 43
0.0
 43
0.0
 43
0.0
 43
0.0
 43
1.0
 77
     0
 47
0.0208333333333333
 47
0.0
 47
0.0
 47
0.0
 47
0.0
 47
0.0208333333333333
 47
0.0
 47
0.0
 47
0.0
 47
0.0
 47
1.0
 47
0.0
 47
0.0
 47
0.0
 47
0.0
 47
1.0
171
     0
 49
0.0208333333333333
 49
0.0
 49
0.0
 49
0.0
 49
0.0
 49
0.0208333333333333
 49
0.0
 49
0.0
 49
0.0
 49
0.0
 49
1.0
 49
0.0
 49
0.0
 49
0.0
 49
0.0
 49
1.0
175
     0
142
0.0208333333333333
142
0.0
142
0.0
142
0.0
142
0.0
142
0.0208333333333333
142
0.0
142
0.0
142
0.0
142
0.0
142
1.0
142
0.0
142
0.0
142
0.0
142
0.0
142
1.0
179
     0
144
0.0208333333333333
144
0.0
144
0.0
144
0.0
144
0.0
144
0.0208333333333333
144
0.0
144
0.0
144
0.0
144
0.0
144
1.0
144
0.0
144
0.0
144
0.0
144
0.0
144
1.0
147
0.0208333333333333
147
0.0
147
0.0
147
0.0
147
0.0
147
0.0208333333333333
147
0.0
147
0.0
147
0.0
147
0.0
147
1.0
147
0.0
147
0.0
147
0.0
147
0.0
147
1.0
  0
MATERIAL
  5
167
102
{ACAD_XDICTIONARY
360
168
102
}
102
{ACAD_REACTORS
330
166
102
}
330
166
100
AcDbMaterial
  1
ByLayer
 72
     0
 43
0.0208333333333333
 43
0.0
 43
0.0
 43
0.0
 43
0.0
 43
0.0208333333333333
 43
0.0
 43
0.0
 43
0.0
 43
0.0
 43
1.0
 43
0.0
 43
0.0
 43
0.0
 43
0.0
 43
1.0
 77
     0
 47
0.0208333333333333
 47
0.0
 47
0.0
 47
0.0
 47
0.0
 47
0.0208333333333333
 47
0.0
 47
0.0
 47
0.0
 47
0.0
 47
1.0
 47
0.0
 47
0.0
 47
0.0
 47
0.0
 47
1.0
171
     0
 49
0.0208333333333333
 49
0.0
 49
0.0
 49
0.0
 49
0.0
 49
0.0208333333333333
 49
0.0
 49
0.0
 49
0.0
 49
0.0
 49
1.0
 49
0.0
 49
0.0
 49
0.0
 49
0.0
 49
1.0
175
     0
142
0.0208333333333333
142
0.0
142
0.0
142
0.0
142
0.0
142
0.0208333333333333
142
0.0
142
0.0
142
0.0
142
0.0
142
1.0
142
0.0
142
0.0
142
0.0
142
0.0
142
1.0
179
     0
144
0.0208333333333333
144
0.0
144
0.0
144
0.0
144
0.0
144
0.0208333333333333
144
0.0
144
0.0
144
0.0
144
0.0
144
1.0
144
0.0
144
0.0
144
0.0
144
0.0
144
1.0
147
0.0208333333333333
147
0.0
147
0.0
147
0.0
147
0.0
147
0.0208333333333333
147
0.0
147
0.0
147
0.0
147
0.0
147
1.0
147
0.0
147
0.0
147
0.0
147
0.0
147
1.0
  0
MATERIAL
  5
177
102
{ACAD_XDICTIONARY
360
178
102
}
102
{ACAD_REACTORS
330
166
102
}
330
166
100
AcDbMaterial
  1
Global
 72
     0
 43
0.0208333333333333
 43
0.0
 43
0.0
 43
0.0
 43
0.0
 43
0.0208333333333333
 43
0.0
 43
0.0
 43
0.0
 43
0.0
 43
1.0
 43
0.0
 43
0.0
 43
0.0
 43
0.0
 43
1.0
 77
     0
 47
0.0208333333333333
 47
0.0
 47
0.0
 47
0.0
 47
0.0
 47
0.0208333333333333
 47
0.0
 47
0.0
 47
0.0
 47
0.0
 47
1.0
 47
0.0
 47
0.0
 47
0.0
 47
0.0
 47
1.0
171
     0
 49
0.0208333333333333
 49
0.0
 49
0.0
 49
0.0
 49
0.0
 49
0.0208333333333333
 49
0.0
 49
0.0
 49
0.0
 49
0.0
 49
1.0
 49
0.0
 49
0.0
 49
0.0
 49
0.0
 49
1.0
175
     0
142
0.0208333333333333
142
0.0
142
0.0
142
0.0
142
0.0
142
0.0208333333333333
142
0.0
142
0.0
142
0.0
142
0.0
142
1.0
142
0.0
142
0.0
142
0.0
142
0.0
142
1.0
179
     0
144
0.0208333333333333
144
0.0
144
0.0
144
0.0
144
0.0
144
0.0208333333333333
144
0.0
144
0.0
144
0.0
144
0.0
144
1.0
144
0.0
144
0.0
144
0.0
144
0.0
144
1.0
147
0.0208333333333333
147
0.0
147
0.0
147
0.0
147
0.0
147
0.0208333333333333
147
0.0
147
0.0
147
0.0
147
0.0
147
1.0
147
0.0
147
0.0
147
0.0
147
0.0
147
1.0
  0
MLEADERSTYLE
  5
1AE
102
{ACAD_REACTORS
330
1AD
102
}
330
1AD
100
AcDbMLeaderStyle
179
     2
170
     2
171
     1
172
     0
 90
        2
 40
0.0
 41
0.0
173
     1
 91
-1056964608
340
11
 92
       -2
290
     1
 42
0.09
291
     1
 43
0.36
  3
Standard
 44
0.18
300

342
17
174
     1
178
     6
175
     1
176
     0
 93
-1056964608
 45
0.18
292
     0
297
     0
 46
0.18
 94
-1056964608
 47
1.0
 49
1.0
140
1.0
293
     1
141
0.0
294
     1
177
     0
142
1.0
295
     0
296
     0
143
0.125
271
     0
272
     9
273
     9
298
     1
  0
MLINESTYLE
  5
1C
102
{ACAD_REACTORS
330
1B
102
}
330
1B
100
AcDbMlineStyle
  2
STANDARD
 70
     0
  3

 62
     0
 51
90.00000000000019
 52
90.00000000000019
 71
     2
 49
0.5
 62
   256
  6
BYLAYER
 49
-0.5
 62
   256
  6
BYLAYER
  0
ACDBPLACEHOLDER
  5
165
102
{ACAD_REACTORS
330
164
102
}
330
164
  0
SCALE
  5
19C
102
{ACAD_REACTORS
330
19B
102
}
330
19B
100
AcDbScale
 70
     0
300
1:1
140
1.0
141
1.0
290
     1
  0
SCALE
  5
19D
102
{ACAD_REACTORS
330
19B
102
}
330
19B
100
AcDbScale
 70
     0
300
1/128" = 1'-0"
140
0.0078125
141
12.0
290
     0
  0
SCALE
  5
19E
102
{ACAD_REACTORS
330
19B
102
}
330
19B
100
AcDbScale
 70
     0
300
1/64" = 1'-0"
140
0.015625
141
12.0
290
     0
  0
SCALE
  5
19F
102
{ACAD_REACTORS
330
19B
102
}
330
19B
100
AcDbScale
 70
     0
300
1/32" = 1'-0"
140
0.03125
141
12.0
290
     0
  0
SCALE
  5
1A0
102
{ACAD_REACTORS
330
19B
102
}
330
19B
100
AcDbScale
 70
     0
300
1/16" = 1'-0"
140
0.0625
141
12.0
290
     0
  0
SCALE
  5
1A1
102
{ACAD_REACTORS
330
19B
102
}
330
19B
100
AcDbScale
 70
     0
300
3/32" = 1'-0"
140
0.09375
141
12.0
290
     0
  0
SCALE
  5
1A2
102
{ACAD_REACTORS
330
19B
102
}
330
19B
100
AcDbScale
 70
     0
300
1/8" = 1'-0"
140
0.125
141
12.0
290
     0
  0
SCALE
  5
1A3
102
{ACAD_REACTORS
330
19B
102
}
330
19B
100
AcDbScale
 70
     0
300
3/16" = 1'-0"
140
0.1875
141
12.0
290
     0
  0
SCALE
  5
1A4
102
{ACAD_REACTORS
330
19B
102
}
330
19B
100
AcDbScale
 70
     0
300
1/4" = 1'-0"
140
0.25
141
12.0
290
     0
  0
SCALE
  5
1A5
102
{ACAD_REACTORS
330
19B
102
}
330
19B
100
AcDbScale
 70
     0
300
3/8" = 1'-0"
140
0.375
141
12.0
290
     0
  0
SCALE
  5
1A6
102
{ACAD_REACTORS
330
19B
102
}
330
19B
100
AcDbScale
 70
     0
300
1/2" = 1'-0"
140
0.5
141
12.0
290
     0
  0
SCALE
  5
1A7
102
{ACAD_REACTORS
330
19B
102
}
330
19B
100
AcDbScale
 70
     0
300
3/4" = 1'-0"
140
0.75
141
12.0
290
     0
  0
SCALE
  5
1A8
102
{ACAD_REACTORS
330
19B
102
}
330
19B
100
AcDbScale
 70
     0
300
1" = 1'-0"
140
1.0
141
12.0
290
     0
  0
SCALE
  5
1A9
102
{ACAD_REACTORS
330
19B
102
}
330
19B
100
AcDbScale
 70
     0
300
1-1/2" = 1'-0"
140
1.5
141
12.0
290
     0
  0
SCALE
  5
1AA
102
{ACAD_REACTORS
330
19B
102
}
330
19B
100
AcDbScale
 70
     0
300
3" = 1'-0"
140
3.0
141
12.0
290
     0
  0
SCALE
  5
1AB
102
{ACAD_REACTORS
330
19B
102
}
330
19B
100
AcDbScale
 70
     0
300
6" = 1'-0"
140
6.0
141
12.0
290
     0
  0
SCALE
  5
1AC
102
{ACAD_REACTORS
330
19B
102
}
330
19B
100
AcDbScale
 70
     0
300
1'-0" = 1'-0"
140
12.0
141
12.0
290
     0
  0
ACDBSECTIONVIEWSTYLE
  5
1B1
102
{ACAD_REACTORS
330
1AF
102
}
330
1AF
100
AcDbModelDocViewStyle
 70
     0
  3
Imperial24
290
     0
100
AcDbSectionViewStyle
 70
     0
 71
     0
 90
       78
 71
     1
340
17
 62
   256
 40
0.24
340
0
340
0
 62
   256
 40
0.24
300
I, O, Q, S, X, Z
 40
0.48
 90
        3
 40
0.18
 90
        1
 71
     2
340
1B0
 90
       25
 62
   256
340
13
 90
       50
 62
   256
 40
0.24
 40
0.0
 40
0.24
 71
     3
340
17
 62
   256
 40
0.24
 90
        1
 40
0.75
 90
        1
300
%<\AcVar ViewType \f "%tc1">% %<\AcVar ViewSectionStartId>%-%<\AcVar ViewSectionEndId>%\PSCALE %<\AcVar ViewScale \f "%sn">%
 71
     4
 62
   256
 62
   257
300
ANSI31
 40
1.0
 90
        0
290
     0
290
     0
 90
        6
 40
0.0
 40
1.570796326794896
 40
0.2617993877991494
 40
1.308996938995747
 40
-0.2617993877991494
 40
1.832595714594046
  0
TABLESTYLE
  5
19A
102
{ACAD_XDICTIONARY
360
3E2
102
}
102
{ACAD_REACTORS
330
199
102
}
330
199
100
AcDbTableStyle
280
     0
  3
Standard
 70
     0
 71
     0
 40
0.06
 41
0.06
280
     0
281
     0
  7
STANDARD
140
0.18
170
     2
 62
     0
 63
     7
283
     0
 90
      512
 91
        0
  1

274
    -2
284
     1
 64
     0
275
    -2
285
     1
 65
     0
276
    -2
286
     1
 66
     0
277
    -2
287
     1
 67
     0
278
    -2
288
     1
 68
     0
279
    -2
289
     1
 69
     0
  7
STANDARD
140
0.25
170
     5
 62
     0
 63
     7
283
     0
 90
      512
 91
        0
  1

274
    -2
284
     1
 64
     0
275
    -2
285
     1
 65
     0
276
    -2
286
     1
 66
     0
277
    -2
287
     1
 67
     0
278
    -2
288
     1
 68
     0
279
    -2
289
     1
 69
     0
  7
STANDARD
140
0.18
170
     5
 62
     0
 63
     7
283
     0
 90
      512
 91
        0
  1

274
    -2
284
     1
 64
     0
275
    -2
285
     1
 65
     0
276
    -2
286
     1
 66
     0
277
    -2
287
     1
 67
     0
278
    -2
288
     1
 68
     0
279
    -2
289
     1
 69
     0
  0
VISUALSTYLE
  5
185
102
{ACAD_REACTORS
330
17F
102
}
330
17F
100
AcDbVisualStyle
  2
2dWireframe
 70
     4
177
     3
291
     0
 70
    58
 90
        0
176
     1
 90
        2
176
     1
 90
        0
176
     1
 90
        0
176
     1
 40
0.6
176
     1
 40
30.0
176
     1
 62
     7
420
 16777215
176
     1
 90
        1
176
     1
 90
        4
176
     1
 62
     7
176
     1
 62
   257
176
     1
 90
        1
176
     1
 90
        1
176
     1
 40
1.0
176
     1
 90
        0
176
     1
 62
   257
176
     1
 40
1.0
176
     1
 90
        1
176
     1
 90
        6
176
     1
 90
        2
176
     1
 62
     7
176
     1
 90
        5
176
     1
 90
        0
176
     1
 90
        0
176
     1
290
     0
176
     1
 90
        1
176
     1
 40
0.0
176
     1
 90
        0
176
     1
290
     1
176
     1
290
     1
176
     1
290
     0
176
     1
290
     0
176
     1
290
     0
176
     1
290
     0
176
     1
290
     0
176
     1
290
     0
176
     1
290
     0
176
     1
 90
       50
176
     1
 40
0.0
176
     1
 40
1.0
176
     1
 90
        0
176
     1
 62
    18
420
        0
176
     1
 90
       50
176
     1
 90
        3
176
     1
 62
     5
420
      255
176
     1
290
     0
176
     1
 90
       50
176
     1
 90
       50
176
     1
 90
       50
176
     1
290
     0
176
     1
 90
       50
176
     1
 62
   256
176
     0
 40
1.0
176
     0
 90
        2
176
     1
  1
strokes_ogs.tif
176
     1
290
     0
176
     1
 40
1.0
176
     1
 40
1.0
176
     1
  0
VISUALSTYLE
  5
184
102
{ACAD_REACTORS
330
17F
102
}
330
17F
100
AcDbVisualStyle
  2
Basic
 70
     7
177
     3
291
     1
 70
    58
 90
        1
176
     1
 90
        0
176
     1
 90
        1
176
     1
 90
        0
176
     1
 40
0.6
176
     1
 40
30.0
176
     1
 62
     7
420
 16777215
176
     1
 90
        0
176
     1
 90
        4
176
     1
 62
     7
176
     1
 62
   257
176
     1
 90
        1
176
     1
 90
        1
176
     1
 40
1.0
176
     1
 90
        8
176
     1
 62
     7
176
     1
 40
1.0
176
     1
 90
        1
176
     1
 90
        6
176
     1
 90
        2
176
     1
 62
     7
176
     1
 90
        5
176
     1
 90
        0
176
     1
 90
        0
176
     1
290
     0
176
     1
 90
        1
176
     1
 40
0.0
176
     1
 90
        0
176
     1
290
     0
176
     1
290
     1
176
     1
290
     1
176
     1
290
     0
176
     1
290
     0
176
     1
290
     0
176
     1
290
     0
176
     1
290
     0
176
     1
290
     0
176
     1
 90
       50
176
     1
 40
0.0
176
     1
 40
1.0
176
     1
 90
        0
176
     1
 62
    18
420
        0
176
     1
 90
       50
176
     1
 90
        3
176
     1
 62
     5
420
      255
176
     1
290
     0
176
     1
 90
       50
176
     1
 90
       50
176
     1
 90
       50
176
     1
290
     0
176
     1
 90
       50
176
     1
 62
   256
176
     0
 40
1.0
176
     0
 90
        2
176
     1
  1
strokes_ogs.tif
176
     1
290
     0
176
     1
 40
1.0
176
     1
 40
1.0
176
     1
  0
VISUALSTYLE
  5
18B
102
{ACAD_REACTORS
330
17F
102
}
330
17F
100
AcDbVisualStyle
  2
Brighten
 70
    12
177
     3
291
     1
 70
    58
 90
        2
176
     1
 90
        2
176
     1
 90
        0
176
     1
 90
        0
176
     1
 40
0.6
176
     1
 40
30.0
176
     1
 62
     7
420
 16777215
176
     1
 90
        1
176
     1
 90
        4
176
     1
 62
     7
176
     1
 62
   257
176
     1
 90
        1
176
     1
 90
        1
176
     1
 40
1.0
176
     1
 90
        8
176
     1
 62
     7
176
     1
 40
1.0
176
     1
 90
        1
176
     1
 90
        6
176
     1
 90
        2
176
     1
 62
     7
176
     1
 90
        5
176
     1
 90
        0
176
     1
 90
        0
176
     1
290
     0
176
     1
 90
        1
176
     1
 40
50.0
176
     1
 90
        0
176
     1
290
     0
176
     1
290
     1
176
     1
290
     1
176
     1
290
     0
176
     1
290
     0
176
     1
290
     0
176
     1
290
     0
176
     1
290
     0
176
     1
290
     0
176
     1
 90
       50
176
     1
 40
0.0
176
     1
 40
1.0
176
     1
 90
        0
176
     1
 62
    18
420
        0
176
     1
 90
       50
176
     1
 90
        3
176
     1
 62
     5
420
      255
176
     1
290
     0
176
     1
 90
       50
176
     1
 90
       50
176
     1
 90
       50
176
     1
290
     0
176
     1
 90
       50
176
     1
 62
   256
176
     0
 40
1.0
176
     0
 90
        2
176
     1
  1
strokes_ogs.tif
176
     1
290
     0
176
     1
 40
1.0
176
     1
 40
1.0
176
     1
  0
VISUALSTYLE
  5
18F
102
{ACAD_REACTORS
330
17F
102
}
330
17F
100
AcDbVisualStyle
  2
ColorChange
 70
    16
177
     3
291
     1
 70
    58
 90
        2
176
     1
 90
        2
176
     1
 90
        3
176
     1
 90
        0
176
     1
 40
0.6
176
     1
 40
30.0
176
     1
 62
     8
420
  8421504
176
     1
 90
        1
176
     1
 90
        4
176
     1
 62
     7
176
     1
 62
   257
176
     1
 90
        1
176
     1
 90
        1
176
     1
 40
1.0
176
     1
 90
        8
176
     1
 62
     8
420
  8421504
176
     1
 40
1.0
176
     1
 90
        1
176
     1
 90
        6
176
     1
 90
        2
176
     1
 62
     7
176
     1
 90
        5
176
     1
 90
        0
176
     1
 90
        0
176
     1
290
     0
176
     1
 90
        1
176
     1
 40
0.0
176
     1
 90
        0
176
     1
290
     0
176
     1
290
     1
176
     1
290
     1
176
     1
290
     0
176
     1
290
     0
176
     1
290
     0
176
     1
290
     0
176
     1
290
     0
176
     1
290
     0
176
     1
 90
       50
176
     1
 40
0.0
176
     1
 40
1.0
176
     1
 90
        0
176
     1
 62
    18
420
        0
176
     1
 90
       50
176
     1
 90
        3
176
     1
 62
     5
420
      255
176
     1
290
     0
176
     1
 90
       50
176
     1
 90
       50
176
     1
 90
       50
176
     1
290
     0
176
     1
 90
       50
176
     1
 62
   256
176
     0
 40
1.0
176
     0
 90
        2
176
     1
  1
strokes_ogs.tif
176
     1
290
     0
176
     1
 40
1.0
176
     1
 40
1.0
176
     1
  0
VISUALSTYLE
  5
188
102
{ACAD_REACTORS
330
17F
102
}
330
17F
100
AcDbVisualStyle
  2
Conceptual
 70
     9
177
     3
291
     0
 70
    58
 90
        3
176
     1
 90
        2
176
     1
 90
        0
176
     1
 90
        0
176
     1
 40
0.6
176
     1
 40
30.0
176
     1
 62
     7
420
 16777215
176
     1
 90
        2
176
     1
 90
        2
176
     1
 62
     7
176
     1
 62
   257
176
     1
 90
        1
176
     1
 90
        1
176
     1
 40
179.0
176
     1
 90
        8
176
     1
 62
     7
176
     1
 40
1.0
176
     1
 90
        1
176
     1
 90
        6
176
     1
 90
        2
176
     1
 62
     7
176
     1
 90
        3
176
     1
 90
        0
176
     1
 90
        0
176
     1
290
     0
176
     1
 90
        1
176
     1
 40
0.0
176
     1
 90
        0
176
     1
290
     0
176
     1
290
     1
176
     1
290
     1
176
     1
290
     0
176
     1
290
     0
176
     1
290
     0
176
     1
290
     0
176
     1
290
     0
176
     1
290
     0
176
     1
 90
       50
176
     1
 40
0.0
176
     1
 40
1.0
176
     1
 90
        0
176
     1
 62
    18
420
        0
176
     1
 90
       50
176
     1
 90
        3
176
     1
 62
     5
420
      255
176
     1
290
     0
176
     1
 90
       50
176
     1
 90
       50
176
     1
 90
       50
176
     1
290
     0
176
     1
 90
       50
176
     1
 62
   256
176
     0
 40
1.0
176
     0
 90
        2
176
     1
  1
strokes_ogs.tif
176
     1
290
     0
176
     1
 40
1.0
176
     1
 40
1.0
176
     1
  0
VISUALSTYLE
  5
18A
102
{ACAD_REACTORS
330
17F
102
}
330
17F
100
AcDbVisualStyle
  2
Dim
 70
    11
177
     3
291
     1
 70
    58
 90
        2
176
     1
 90
        2
176
     1
 90
        0
176
     1
 90
        0
176
     1
 40
0.6
176
     1
 40
30.0
176
     1
 62
     7
420
 16777215
176
     1
 90
        1
176
     1
 90
        4
176
     1
 62
     7
176
     1
 62
   257
176
     1
 90
        1
176
     1
 90
        1
176
     1
 40
1.0
176
     1
 90
        8
176
     1
 62
     7
176
     1
 40
1.0
176
     1
 90
        1
176
     1
 90
        6
176
     1
 90
        2
176
     1
 62
     7
176
     1
 90
        5
176
     1
 90
        0
176
     1
 90
        0
176
     1
290
     0
176
     1
 90
        1
176
     1
 40
-50.0
176
     1
 90
        0
176
     1
290
     0
176
     1
290
     1
176
     1
290
     1
176
     1
290
     0
176
     1
290
     0
176
     1
290
     0
176
     1
290
     0
176
     1
290
     0
176
     1
290
     0
176
     1
 90
       50
176
     1
 40
0.0
176
     1
 40
1.0
176
     1
 90
        0
176
     1
 62
    18
420
        0
176
     1
 90
       50
176
     1
 90
        3
176
     1
 62
     5
420
      255
176
     1
290
     0
176
     1
 90
       50
176
     1
 90
       50
176
     1
 90
       50
176
     1
290
     0
176
     1
 90
       50
176
     1
 62
   256
176
     0
 40
1.0
176
     0
 90
        2
176
     1
  1
strokes_ogs.tif
176
     1
290
     0
176
     1
 40
1.0
176
     1
 40
1.0
176
     1
  0
VISUALSTYLE
  5
197
102
{ACAD_REACTORS
330
17F
102
}
330
17F
100
AcDbVisualStyle
  2
EdgeColorOff
 70
    22
177
     3
291
     1
 70
    58
 90
        2
176
     0
 90
        2
176
     0
 90
        0
176
     0
 90
        0
176
     0
 40
0.6
176
     0
 40
30.0
176
     0
 62
     7
420
 16777215
176
     0
 90
        1
176
     0
 90
        4
176
     0
 62
     7
176
     0
 62
   257
176
     0
 90
        1
176
     0
 90
        1
176
     0
 40
1.0
176
     0
 90
        8
176
     2
 62
     7
176
     0
 40
1.0
176
     0
 90
        1
176
     0
 90
        6
176
     0
 90
        2
176
     0
 62
     7
176
     0
 90
        5
176
     0
 90
        0
176
     0
 90
        0
176
     0
290
     0
176
     0
 90
        1
176
     0
 40
0.0
176
     0
 90
        0
176
     0
290
     0
176
     0
290
     1
176
     0
290
     1
176
     0
290
     0
176
     0
290
     0
176
     0
290
     0
176
     0
290
     0
176
     0
290
     0
176
     0
290
     0
176
     0
 90
       50
176
     0
 40
0.0
176
     0
 40
1.0
176
     0
 90
        0
176
     0
 62
    18
420
        0
176
     0
 90
       50
176
     0
 90
        3
176
     0
 62
     5
420
      255
176
     0
290
     0
176
     0
 90
       50
176
     0
 90
       50
176
     0
 90
       50
176
     0
290
     0
176
     0
 90
       50
176
     0
 62
   256
176
     0
 40
1.0
176
     0
 90
        2
176
     0
  1
strokes_ogs.tif
176
     0
290
     0
176
     0
 40
1.0
176
     0
 40
1.0
176
     0
  0
VISUALSTYLE
  5
18E
102
{ACAD_REACTORS
330
17F
102
}
330
17F
100
AcDbVisualStyle
  2
Facepattern
 70
    15
177
     3
291
     1
 70
    58
 90
        2
176
     1
 90
        2
176
     1
 90
        0
176
     1
 90
        0
176
     1
 40
0.6
176
     1
 40
30.0
176
     1
 62
     7
420
 16777215
176
     1
 90
        1
176
     1
 90
        4
176
     1
 62
     7
176
     1
 62
   257
176
     1
 90
        1
176
     1
 90
        1
176
     1
 40
1.0
176
     1
 90
        8
176
     1
 62
     7
176
     1
 40
1.0
176
     1
 90
        1
176
     1
 90
        6
176
     1
 90
        2
176
     1
 62
     7
176
     1
 90
        5
176
     1
 90
        0
176
     1
 90
        0
176
     1
290
     0
176
     1
 90
        1
176
     1
 40
0.0
176
     1
 90
        0
176
     1
290
     0
176
     1
290
     1
176
     1
290
     1
176
     1
290
     0
176
     1
290
     0
176
     1
290
     0
176
     1
290
     0
176
     1
290
     0
176
     1
290
     0
176
     1
 90
       50
176
     1
 40
0.0
176
     1
 40
1.0
176
     1
 90
        0
176
     1
 62
    18
420
        0
176
     1
 90
       50
176
     1
 90
        3
176
     1
 62
     5
420
      255
176
     1
290
     0
176
     1
 90
       50
176
     1
 90
       50
176
     1
 90
       50
176
     1
290
     0
176
     1
 90
       50
176
     1
 62
   256
176
     0
 40
1.0
176
     0
 90
        2
176
     1
  1
strokes_ogs.tif
176
     1
290
     0
176
     1
 40
1.0
176
     1
 40
1.0
176
     1
  0
VISUALSTYLE
  5
180
102
{ACAD_REACTORS
330
17F
102
}
330
17F
100
AcDbVisualStyle
  2
Flat
 70
     0
177
     3
291
     1
 70
    58
 90
        2
176
     1
 90
        1
176
     1
 90
        1
176
     1
 90
        2
176
     1
 40
0.6
176
     1
 40
30.0
176
     1
 62
     7
420
 16777215
176
     1
 90
        0
176
     1
 90
        0
176
     1
 62
     7
176
     1
 62
   257
176
     1
 90
        1
176
     1
 90
        1
176
     1
 40
1.0
176
     1
 90
        8
176
     1
 62
     7
176
     1
 40
1.0
176
     1
 90
        1
176
     1
 90
        6
176
     1
 90
        2
176
     1
 62
     7
176
     1
 90
        5
176
     1
 90
        0
176
     1
 90
        0
176
     1
290
     0
176
     1
 90
       13
176
     1
 40
0.0
176
     1
 90
        0
176
     1
290
     0
176
     1
290
     1
176
     1
290
     1
176
     1
290
     0
176
     1
290
     0
176
     1
290
     0
176
     1
290
     0
176
     1
290
     0
176
     1
290
     0
176
     1
 90
       50
176
     1
 40
0.0
176
     1
 40
1.0
176
     1
 90
        0
176
     1
 62
    18
420
        0
176
     1
 90
       50
176
     1
 90
        3
176
     1
 62
     5
420
      255
176
     1
290
     0
176
     1
 90
       50
176
     1
 90
       50
176
     1
 90
       50
176
     1
290
     0
176
     1
 90
       50
176
     1
 62
   256
176
     0
 40
1.0
176
     0
 90
        2
176
     1
  1
strokes_ogs.tif
176
     1
290
     0
176
     1
 40
1.0
176
     1
 40
1.0
176
     1
  0
VISUALSTYLE
  5
181
102
{ACAD_REACTORS
330
17F
102
}
330
17F
100
AcDbVisualStyle
  2
FlatWithEdges
 70
     1
177
     3
291
     1
 70
    58
 90
        2
176
     1
 90
        1
176
     1
 90
        1
176
     1
 90
        2
176
     1
 40
0.6
176
     1
 40
30.0
176
     1
 62
     7
420
 16777215
176
     1
 90
        1
176
     1
 90
        0
176
     1
 62
     7
176
     1
 62
   257
176
     1
 90
        1
176
     1
 90
        1
176
     1
 40
1.0
176
     1
 90
        0
176
     1
 62
   257
176
     1
 40
1.0
176
     1
 90
        1
176
     1
 90
        6
176
     1
 90
        2
176
     1
 62
     7
176
     1
 90
        5
176
     1
 90
        0
176
     1
 90
        0
176
     1
290
     0
176
     1
 90
       13
176
     1
 40
0.0
176
     1
 90
        0
176
     1
290
     0
176
     1
290
     1
176
     1
290
     1
176
     1
290
     0
176
     1
290
     0
176
     1
290
     0
176
     1
290
     0
176
     1
290
     0
176
     1
290
     0
176
     1
 90
       50
176
     1
 40
0.0
176
     1
 40
1.0
176
     1
 90
        0
176
     1
 62
    18
420
        0
176
     1
 90
       50
176
     1
 90
        3
176
     1
 62
     5
420
      255
176
     1
290
     0
176
     1
 90
       50
176
     1
 90
       50
176
     1
 90
       50
176
     1
290
     0
176
     1
 90
       50
176
     1
 62
   256
176
     0
 40
1.0
176
     0
 90
        2
176
     1
  1
strokes_ogs.tif
176
     1
290
     0
176
     1
 40
1.0
176
     1
 40
1.0
176
     1
  0
VISUALSTYLE
  5
182
102
{ACAD_REACTORS
330
17F
102
}
330
17F
100
AcDbVisualStyle
  2
Gouraud
 70
     2
177
     3
291
     1
 70
    58
 90
        2
176
     1
 90
        2
176
     1
 90
        1
176
     1
 90
        2
176
     1
 40
0.6
176
     1
 40
30.0
176
     1
 62
     7
420
 16777215
176
     1
 90
        0
176
     1
 90
        0
176
     1
 62
     7
176
     1
 62
   257
176
     1
 90
        1
176
     1
 90
        1
176
     1
 40
1.0
176
     1
 90
        0
176
     1
 62
     7
176
     1
 40
1.0
176
     1
 90
        1
176
     1
 90
        6
176
     1
 90
        2
176
     1
 62
     7
176
     1
 90
        5
176
     1
 90
        0
176
     1
 90
        0
176
     1
290
     0
176
     1
 90
       13
176
     1
 40
0.0
176
     1
 90
        0
176
     1
290
     0
176
     1
290
     1
176
     1
290
     1
176
     1
290
     0
176
     1
290
     0
176
     1
290
     0
176
     1
290
     0
176
     1
290
     0
176
     1
290
     0
176
     1
 90
       50
176
     1
 40
0.0
176
     1
 40
1.0
176
     1
 90
        0
176
     1
 62
    18
420
        0
176
     1
 90
       50
176
     1
 90
        3
176
     1
 62
     5
420
      255
176
     1
290
     0
176
     1
 90
       50
176
     1
 90
       50
176
     1
 90
       50
176
     1
290
     0
176
     1
 90
       50
176
     1
 62
   256
176
     0
 40
1.0
176
     0
 90
        2
176
     1
  1
strokes_ogs.tif
176
     1
290
     0
176
     1
 40
1.0
176
     1
 40
1.0
176
     1
  0
VISUALSTYLE
  5
183
102
{ACAD_REACTORS
330
17F
102
}
330
17F
100
AcDbVisualStyle
  2
GouraudWithEdges
 70
     3
177
     3
291
     1
 70
    58
 90
        2
176
     1
 90
        2
176
     1
 90
        1
176
     1
 90
        2
176
     1
 40
0.6
176
     1
 40
30.0
176
     1
 62
     7
420
 16777215
176
     1
 90
        1
176
     1
 90
        0
176
     1
 62
     7
176
     1
 62
   257
176
     1
 90
        1
176
     1
 90
        1
176
     1
 40
1.0
176
     1
 90
        0
176
     1
 62
   257
176
     1
 40
1.0
176
     1
 90
        1
176
     1
 90
        6
176
     1
 90
        2
176
     1
 62
     7
176
     1
 90
        5
176
     1
 90
        0
176
     1
 90
        0
176
     1
290
     0
176
     1
 90
       13
176
     1
 40
0.0
176
     1
 90
        0
176
     1
290
     0
176
     1
290
     1
176
     1
290
     1
176
     1
290
     0
176
     1
290
     0
176
     1
290
     0
176
     1
290
     0
176
     1
290
     0
176
     1
290
     0
176
     1
 90
       50
176
     1
 40
0.0
176
     1
 40
1.0
176
     1
 90
        0
176
     1
 62
    18
420
        0
176
     1
 90
       50
176
     1
 90
        3
176
     1
 62
     5
420
      255
176
     1
290
     0
176
     1
 90
       50
176
     1
 90
       50
176
     1
 90
       50
176
     1
290
     0
176
     1
 90
       50
176
     1
 62
   256
176
     0
 40
1.0
176
     0
 90
        2
176
     1
  1
strokes_ogs.tif
176
     1
290
     0
176
     1
 40
1.0
176
     1
 40
1.0
176
     1
  0
VISUALSTYLE
  5
187
102
{ACAD_REACTORS
330
17F
102
}
330
17F
100
AcDbVisualStyle
  2
Hidden
 70
     6
177
     3
291
     0
 70
    58
 90
        1
176
     1
 90
        2
176
     1
 90
        2
176
     1
 90
        0
176
     1
 40
0.6
176
     1
 40
30.0
176
     1
 62
     7
420
 16777215
176
     1
 90
        2
176
     1
 90
        2
176
     1
 62
     7
176
     1
 62
   257
176
     1
 90
        2
176
     1
 90
        1
176
     1
 40
40.0
176
     1
 90
        0
176
     1
 62
   257
176
     1
 40
1.0
176
     1
 90
        1
176
     1
 90
        6
176
     1
 90
        2
176
     1
 62
     7
176
     1
 90
        3
176
     1
 90
        0
176
     1
 90
        0
176
     1
290
     0
176
     1
 90
        1
176
     1
 40
0.0
176
     1
 90
        0
176
     1
290
     0
176
     1
290
     1
176
     1
290
     1
176
     1
290
     0
176
     1
290
     0
176
     1
290
     0
176
     1
290
     0
176
     1
290
     0
176
     1
290
     0
176
     1
 90
       50
176
     1
 40
0.0
176
     1
 40
1.0
176
     1
 90
        0
176
     1
 62
    18
420
        0
176
     1
 90
       50
176
     1
 90
        3
176
     1
 62
     5
420
      255
176
     1
290
     0
176
     1
 90
       50
176
     1
 90
       50
176
     1
 90
       50
176
     1
290
     0
176
     1
 90
       50
176
     1
 62
   256
176
     0
 40
1.0
176
     0
 90
        2
176
     1
  1
strokes_ogs.tif
176
     1
290
     0
176
     1
 40
1.0
176
     1
 40
1.0
176
     1
  0
VISUALSTYLE
  5
195
102
{ACAD_REACTORS
330
17F
102
}
330
17F
100
AcDbVisualStyle
  2
JitterOff
 70
    20
177
     3
291
     1
 70
    58
 90
        2
176
     0
 90
        2
176
     0
 90
        0
176
     0
 90
        0
176
     0
 40
0.6
176
     0
 40
30.0
176
     0
 62
     7
420
 16777215
176
     0
 90
        1
176
     0
 90
        4
176
     0
 62
     7
176
     0
 62
   257
176
     0
 90
        1
176
     0
 90
        1
176
     0
 40
1.0
176
     0
 90
       10
176
     2
 62
     7
176
     0
 40
1.0
176
     0
 90
        1
176
     0
 90
        6
176
     0
 90
        2
176
     0
 62
     7
176
     0
 90
        5
176
     0
 90
        0
176
     0
 90
        0
176
     0
290
     0
176
     0
 90
        1
176
     0
 40
0.0
176
     0
 90
        0
176
     0
290
     0
176
     0
290
     1
176
     0
290
     1
176
     0
290
     0
176
     0
290
     0
176
     0
290
     0
176
     0
290
     0
176
     0
290
     0
176
     0
290
     0
176
     0
 90
       50
176
     0
 40
0.0
176
     0
 40
1.0
176
     0
 90
        0
176
     0
 62
    18
420
        0
176
     0
 90
       50
176
     0
 90
        3
176
     0
 62
     5
420
      255
176
     0
290
     0
176
     0
 90
       50
176
     0
 90
       50
176
     0
 90
       50
176
     0
290
     0
176
     0
 90
       50
176
     0
 62
   256
176
     0
 40
1.0
176
     0
 90
        2
176
     0
  1
strokes_ogs.tif
176
     0
290
     0
176
     0
 40
1.0
176
     0
 40
1.0
176
     0
  0
VISUALSTYLE
  5
18D
102
{ACAD_REACTORS
330
17F
102
}
330
17F
100
AcDbVisualStyle
  2
Linepattern
 70
    14
177
     3
291
     1
 70
    58
 90
        2
176
     1
 90
        2
176
     1
 90
        0
176
     1
 90
        0
176
     1
 40
0.6
176
     1
 40
30.0
176
     1
 62
     7
420
 16777215
176
     1
 90
        1
176
     1
 90
        4
176
     1
 62
     7
176
     1
 62
   257
176
     1
 90
        7
176
     1
 90
        7
176
     1
 40
1.0
176
     1
 90
        8
176
     1
 62
     7
176
     1
 40
1.0
176
     1
 90
        1
176
     1
 90
        6
176
     1
 90
        2
176
     1
 62
     7
176
     1
 90
        5
176
     1
 90
        0
176
     1
 90
        0
176
     1
290
     0
176
     1
 90
        1
176
     1
 40
0.0
176
     1
 90
        0
176
     1
290
     0
176
     1
290
     1
176
     1
290
     1
176
     1
290
     0
176
     1
290
     0
176
     1
290
     0
176
     1
290
     0
176
     1
290
     0
176
     1
290
     0
176
     1
 90
       50
176
     1
 40
0.0
176
     1
 40
1.0
176
     1
 90
        0
176
     1
 62
    18
420
        0
176
     1
 90
       50
176
     1
 90
        3
176
     1
 62
     5
420
      255
176
     1
290
     0
176
     1
 90
       50
176
     1
 90
       50
176
     1
 90
       50
176
     1
290
     0
176
     1
 90
       50
176
     1
 62
   256
176
     0
 40
1.0
176
     0
 90
        2
176
     1
  1
strokes_ogs.tif
176
     1
290
     0
176
     1
 40
1.0
176
     1
 40
1.0
176
     1
  0
VISUALSTYLE
  5
196
102
{ACAD_REACTORS
330
17F
102
}
330
17F
100
AcDbVisualStyle
  2
OverhangOff
 70
    21
177
     3
291
     1
 70
    58
 90
        2
176
     0
 90
        2
176
     0
 90
        0
176
     0
 90
        0
176
     0
 40
0.6
176
     0
 40
30.0
176
     0
 62
     7
420
 16777215
176
     0
 90
        1
176
     0
 90
        4
176
     0
 62
     7
176
     0
 62
   257
176
     0
 90
        1
176
     0
 90
        1
176
     0
 40
1.0
176
     0
 90
        9
176
     2
 62
     7
176
     0
 40
1.0
176
     0
 90
        1
176
     0
 90
        6
176
     0
 90
        2
176
     0
 62
     7
176
     0
 90
        5
176
     0
 90
        0
176
     0
 90
        0
176
     0
290
     0
176
     0
 90
        1
176
     0
 40
0.0
176
     0
 90
        0
176
     0
290
     0
176
     0
290
     1
176
     0
290
     1
176
     0
290
     0
176
     0
290
     0
176
     0
290
     0
176
     0
290
     0
176
     0
290
     0
176
     0
290
     0
176
     0
 90
       50
176
     0
 40
0.0
176
     0
 40
1.0
176
     0
 90
        0
176
     0
 62
    18
420
        0
176
     0
 90
       50
176
     0
 90
        3
176
     0
 62
     5
420
      255
176
     0
290
     0
176
     0
 90
       50
176
     0
 90
       50
176
     0
 90
       50
176
     0
290
     0
176
     0
 90
       50
176
     0
 62
   256
176
     0
 40
1.0
176
     0
 90
        2
176
     0
  1
strokes_ogs.tif
176
     0
290
     0
176
     0
 40
1.0
176
     0
 40
1.0
176
     0
  0
VISUALSTYLE
  5
189
102
{ACAD_REACTORS
330
17F
102
}
330
17F
100
AcDbVisualStyle
  2
Realistic
 70
     8
177
     3
291
     0
 70
    58
 90
        2
176
     1
 90
        3
176
     1
 90
        0
176
     1
 90
        2
176
     1
 40
0.6
176
     1
 40
30.0
176
     1
 62
     7
420
 16777215
176
     1
 90
        0
176
     1
 90
        0
176
     1
 62
     7
176
     1
 62
   257
176
     1
 90
        1
176
     1
 90
        1
176
     1
 40
1.0
176
     1
 90
        8
176
     1
 62
   257
176
     1
 40
1.0
176
     1
 90
        1
176
     1
 90
        6
176
     1
 90
        2
176
     1
 62
     7
176
     1
 90
        3
176
     1
 90
        0
176
     1
 90
        0
176
     1
290
     0
176
     1
 90
       13
176
     1
 40
0.0
176
     1
 90
        0
176
     1
290
     0
176
     1
290
     1
176
     1
290
     1
176
     1
290
     0
176
     1
290
     0
176
     1
290
     0
176
     1
290
     0
176
     1
290
     0
176
     1
290
     0
176
     1
 90
       50
176
     1
 40
0.0
176
     1
 40
1.0
176
     1
 90
        0
176
     1
 62
    18
420
        0
176
     1
 90
       50
176
     1
 90
        3
176
     1
 62
     5
420
      255
176
     1
290
     0
176
     1
 90
       50
176
     1
 90
       50
176
     1
 90
       50
176
     1
290
     0
176
     1
 90
       50
176
     1
 62
   256
176
     0
 40
1.0
176
     0
 90
        2
176
     1
  1
strokes_ogs.tif
176
     1
290
     0
176
     1
 40
1.0
176
     1
 40
1.0
176
     1
  0
VISUALSTYLE
  5
194
102
{ACAD_REACTORS
330
17F
102
}
330
17F
100
AcDbVisualStyle
  2
Shaded
 70
    27
177
     3
291
     0
 70
    58
 90
        2
176
     1
 90
        2
176
     1
 90
        1
176
     1
 90
        2
176
     1
 40
0.6
176
     1
 40
30.0
176
     1
 62
     7
420
 16777215
176
     1
 90
        0
176
     1
 90
        4
176
     1
 62
     7
176
     1
 62
   257
176
     1
 90
        1
176
     1
 90
        1
176
     1
 40
1.0
176
     1
 90
        8
176
     1
 62
   257
176
     1
 40
1.0
176
     1
 90
        1
176
     1
 90
        6
176
     1
 90
        2
176
     1
 62
     8
420
  7895160
176
     1
 90
        3
176
     1
 90
        0
176
     1
 90
        0
176
     1
290
     0
176
     1
 90
        5
176
     1
 40
0.0
176
     1
 90
        0
176
     1
290
     0
176
     1
290
     1
176
     1
290
     1
176
     1
290
     0
176
     1
290
     0
176
     1
290
     0
176
     1
290
     0
176
     1
290
     0
176
     1
290
     0
176
     1
 90
       50
176
     1
 40
0.0
176
     1
 40
1.0
176
     1
 90
        0
176
     1
 62
    18
420
        0
176
     1
 90
       50
176
     1
 90
        3
176
     1
 62
     5
420
      255
176
     1
290
     0
176
     1
 90
       50
176
     1
 90
       50
176
     1
 90
       50
176
     1
290
     0
176
     1
 90
       50
176
     1
 62
   256
176
     0
 40
1.0
176
     0
 90
        2
176
     1
  1
strokes_ogs.tif
176
     1
290
     0
176
     1
 40
1.0
176
     1
 40
1.0
176
     1
  0
VISUALSTYLE
  5
193
102
{ACAD_REACTORS
330
17F
102
}
330
17F
100
AcDbVisualStyle
  2
Shaded with edges
 70
    26
177
     3
291
     0
 70
    58
 90
        2
176
     1
 90
        2
176
     1
 90
        1
176
     1
 90
        2
176
     1
 40
0.6
176
     1
 40
30.0
176
     1
 62
     7
420
 16777215
176
     1
 90
        1
176
     1
 90
       10
176
     1
 62
     7
176
     1
 62
   257
176
     1
 90
        2
176
     1
 90
        1
176
     1
 40
1.0
176
     1
 90
        8
176
     1
 62
   257
176
     1
 40
1.0
176
     1
 90
        1
176
     1
 90
        6
176
     1
 90
        2
176
     1
 62
     7
176
     1
 90
        3
176
     1
 90
        0
176
     1
 90
        0
176
     1
290
     0
176
     1
 90
        5
176
     1
 40
0.0
176
     1
 90
        0
176
     1
290
     0
176
     1
290
     1
176
     1
290
     1
176
     1
290
     0
176
     1
290
     0
176
     1
290
     0
176
     1
290
     0
176
     1
290
     0
176
     1
290
     0
176
     1
 90
       50
176
     1
 40
0.0
176
     1
 40
1.0
176
     1
 90
        0
176
     1
 62
    18
420
        0
176
     1
 90
       50
176
     1
 90
        3
176
     1
 62
     5
420
      255
176
     1
290
     0
176
     1
 90
       50
176
     1
 90
       50
176
     1
 90
       50
176
     1
290
     0
176
     1
 90
       50
176
     1
 62
   256
176
     0
 40
1.0
176
     0
 90
        2
176
     1
  1
strokes_ogs.tif
176
     1
290
     0
176
     1
 40
1.0
176
     1
 40
1.0
176
     1
  0
VISUALSTYLE
  5
190
102
{ACAD_REACTORS
330
17F
102
}
330
17F
100
AcDbVisualStyle
  2
Shades of Gray
 70
    23
177
     3
291
     0
 70
    58
 90
        2
176
     1
 90
        2
176
     1
 90
        3
176
     1
 90
        0
176
     1
 40
0.6
176
     1
 40
30.0
176
     1
 62
     7
420
 16777215
176
     1
 90
        2
176
     1
 90
        2
176
     1
 62
     7
176
     1
 62
     7
176
     1
 90
        1
176
     1
 90
        1
176
     1
 40
40.0
176
     1
 90
        8
176
     1
 62
     7
176
     1
 40
1.0
176
     1
 90
        1
176
     1
 90
        6
176
     1
 90
        2
176
     1
 62
     7
176
     1
 90
        3
176
     1
 90
        0
176
     1
 90
        0
176
     1
290
     0
176
     1
 90
        1
176
     1
 40
0.0
176
     1
 90
        0
176
     1
290
     0
176
     1
290
     1
176
     1
290
     1
176
     1
290
     0
176
     1
290
     0
176
     1
290
     0
176
     1
290
     0
176
     1
290
     0
176
     1
290
     0
176
     1
 90
       50
176
     1
 40
0.0
176
     1
 40
1.0
176
     1
 90
        0
176
     1
 62
    18
420
        0
176
     1
 90
       50
176
     1
 90
        3
176
     1
 62
     5
420
      255
176
     1
290
     0
176
     1
 90
       50
176
     1
 90
       50
176
     1
 90
       50
176
     1
290
     0
176
     1
 90
       50
176
     1
 62
   256
176
     0
 40
1.0
176
     0
 90
        2
176
     1
  1
strokes_ogs.tif
176
     1
290
     0
176
     1
 40
1.0
176
     1
 40
1.0
176
     1
  0
VISUALSTYLE
  5
191
102
{ACAD_REACTORS
330
17F
102
}
330
17F
100
AcDbVisualStyle
  2
Sketchy
 70
    24
177
     3
291
     0
 70
    58
 90
        1
176
     1
 90
        2
176
     1
 90
        2
176
     1
 90
        0
176
     1
 40
0.6
176
     1
 40
30.0
176
     1
 62
     7
420
 16777215
176
     1
 90
        2
176
     1
 90
        2
176
     1
 62
     7
176
     1
 62
     7
176
     1
 90
        1
176
     1
 90
        1
176
     1
 40
40.0
176
     1
 90
       11
176
     1
 62
     7
176
     1
 40
1.0
176
     1
 90
        1
176
     1
 90
        6
176
     1
 90
        2
176
     1
 62
     7
176
     1
 90
        6
176
     1
 90
        0
176
     1
 90
        0
176
     1
290
     0
176
     1
 90
        1
176
     1
 40
0.0
176
     1
 90
        0
176
     1
290
     0
176
     1
290
     1
176
     1
290
     1
176
     1
290
     0
176
     1
290
     0
176
     1
290
     0
176
     1
290
     0
176
     1
290
     0
176
     1
290
     0
176
     1
 90
       50
176
     1
 40
0.0
176
     1
 40
1.0
176
     1
 90
        0
176
     1
 62
    18
420
        0
176
     1
 90
       50
176
     1
 90
        3
176
     1
 62
     5
420
      255
176
     1
290
     0
176
     1
 90
       50
176
     1
 90
       50
176
     1
 90
       50
176
     1
290
     0
176
     1
 90
       50
176
     1
 62
   256
176
     0
 40
1.0
176
     0
 90
        2
176
     1
  1
strokes_ogs.tif
176
     1
290
     0
176
     1
 40
1.0
176
     1
 40
1.0
176
     1
  0
VISUALSTYLE
  5
18C
102
{ACAD_REACTORS
330
17F
102
}
330
17F
100
AcDbVisualStyle
  2
Thicken
 70
    13
177
     3
291
     1
 70
    58
 90
        2
176
     1
 90
        2
176
     1
 90
        0
176
     1
 90
        0
176
     1
 40
0.6
176
     1
 40
30.0
176
     1
 62
     7
420
 16777215
176
     1
 90
        1
176
     1
 90
        4
176
     1
 62
     7
176
     1
 62
   257
176
     1
 90
        1
176
     1
 90
        1
176
     1
 40
1.0
176
     1
 90
       12
176
     1
 62
     7
176
     1
 40
1.0
176
     1
 90
        1
176
     1
 90
        6
176
     1
 90
        2
176
     1
 62
     7
176
     1
 90
        5
176
     1
 90
        0
176
     1
 90
        0
176
     1
290
     0
176
     1
 90
        1
176
     1
 40
0.0
176
     1
 90
        0
176
     1
290
     0
176
     1
290
     1
176
     1
290
     1
176
     1
290
     0
176
     1
290
     0
176
     1
290
     0
176
     1
290
     0
176
     1
290
     0
176
     1
290
     0
176
     1
 90
       50
176
     1
 40
0.0
176
     1
 40
1.0
176
     1
 90
        0
176
     1
 62
    18
420
        0
176
     1
 90
       50
176
     1
 90
        3
176
     1
 62
     5
420
      255
176
     1
290
     0
176
     1
 90
       50
176
     1
 90
       50
176
     1
 90
       50
176
     1
290
     0
176
     1
 90
       50
176
     1
 62
   256
176
     0
 40
1.0
176
     0
 90
        2
176
     1
  1
strokes_ogs.tif
176
     1
290
     0
176
     1
 40
1.0
176
     1
 40
1.0
176
     1
  0
VISUALSTYLE
  5
186
102
{ACAD_REACTORS
330
17F
102
}
330
17F
100
AcDbVisualStyle
  2
Wireframe
 70
     5
177
     3
291
     0
 70
    58
 90
        0
176
     1
 90
        2
176
     1
 90
        0
176
     1
 90
        0
176
     1
 40
0.6
176
     1
 40
30.0
176
     1
 62
     7
420
 16777215
176
     1
 90
        1
176
     1
 90
        4
176
     1
 62
     7
176
     1
 62
   257
176
     1
 90
        1
176
     1
 90
        1
176
     1
 40
1.0
176
     1
 90
        0
176
     1
 62
   257
176
     1
 40
1.0
176
     1
 90
        1
176
     1
 90
        6
176
     1
 90
        2
176
     1
 62
     7
176
     1
 90
        3
176
     1
 90
        0
176
     1
 90
        0
176
     1
290
     0
176
     1
 90
        1
176
     1
 40
0.0
176
     1
 90
        0
176
     1
290
     0
176
     1
290
     1
176
     1
290
     1
176
     1
290
     0
176
     1
290
     0
176
     1
290
     0
176
     1
290
     0
176
     1
290
     0
176
     1
290
     0
176
     1
 90
       50
176
     1
 40
0.0
176
     1
 40
1.0
176
     1
 90
        0
176
     1
 62
    18
420
        0
176
     1
 90
       50
176
     1
 90
        3
176
     1
 62
     5
420
      255
176
     1
290
     0
176
     1
 90
       50
176
     1
 90
       50
176
     1
 90
       50
176
     1
290
     0
176
     1
 90
       50
176
     1
 62
   256
176
     0
 40
1.0
176
     0
 90
        2
176
     1
  1
strokes_ogs.tif
176
     1
290
     0
176
     1
 40
1.0
176
     1
 40
1.0
176
     1
  0
VISUALSTYLE
  5
192
102
{ACAD_REACTORS
330
17F
102
}
330
17F
100
AcDbVisualStyle
  2
X-Ray
 70
    25
177
     3
291
     0
 70
    58
 90
        2
176
     1
 90
        2
176
     1
 90
        1
176
     1
 90
        1
176
     1
 40
0.5
176
     1
 40
30.0
176
     1
 62
     7
420
 16777215
176
     1
 90
        1
176
     1
 90
        0
176
     1
 62
     7
176
     1
 62
   257
176
     1
 90
        1
176
     1
 90
        1
176
     1
 40
1.0
176
     1
 90
        8
176
     1
 62
     7
176
     1
 40
1.0
176
     1
 90
        1
176
     1
 90
        6
176
     1
 90
        2
176
     1
 62
     7
176
     1
 90
        3
176
     1
 90
        0
176
     1
 90
        0
176
     1
290
     0
176
     1
 90
       13
176
     1
 40
0.0
176
     1
 90
        0
176
     1
290
     0
176
     1
290
     1
176
     1
290
     1
176
     1
290
     0
176
     1
290
     0
176
     1
290
     0
176
     1
290
     0
176
     1
290
     0
176
     1
290
     0
176
     1
 90
       50
176
     1
 40
0.0
176
     1
 40
1.0
176
     1
 90
        0
176
     1
 62
    18
420
        0
176
     1
 90
       50
176
     1
 90
        3
176
     1
 62
     5
420
      255
176
     1
290
     0
176
     1
 90
       50
176
     1
 90
       50
176
     1
 90
       50
176
     1
290
     0
176
     1
 90
       50
176
     1
 62
   256
176
     0
 40
1.0
176
     0
 90
        2
176
     1
  1
strokes_ogs.tif
176
     1
290
     0
176
     1
 40
1.0
176
     1
 40
1.0
176
     1
  0
DICTIONARYVAR
  5
1D4
102
{ACAD_REACTORS
330
1CE
102
}
330
1CE
100
DictionaryVariables
280
     0
  1
1:1
  0
DICTIONARYVAR
  5
1D0
102
{ACAD_REACTORS
330
1CE
102
}
330
1CE
100
DictionaryVariables
280
     0
  1
STANDARD
  0
DICTIONARYVAR
  5
1CF
102
{ACAD_REACTORS
330
1CE
102
}
330
1CE
100
DictionaryVariables
280
     0
  1
STANDARD
  0
DICTIONARYVAR
  5
1D1
102
{ACAD_REACTORS
330
1CE
102
}
330
1CE
100
DictionaryVariables
280
     0
  1
Imperial24
  0
DICTIONARYVAR
  5
1D2
102
{ACAD_REACTORS
330
1CE
102
}
330
1CE
100
DictionaryVariables
280
     0
  1
Imperial24
  0
DICTIONARYVAR
  5
1D6
102
{ACAD_REACTORS
330
1CE
102
}
330
1CE
100
DictionaryVariables
280
     0
  1
1
  0
DICTIONARYVAR
  5
1D7
102
{ACAD_REACTORS
330
1CE
102
}
330
1CE
100
DictionaryVariables
280
     0
  1
15
  0
DICTIONARYVAR
  5
1D5
102
{ACAD_REACTORS
330
1CE
102
}
330
1CE
100
DictionaryVariables
280
     0
  1
0
  0
DICTIONARYVAR
  5
1D3
102
{ACAD_REACTORS
330
1CE
102
}
330
1CE
100
DictionaryVariables
280
     0
  1
0
  0
DICTIONARY
  5
26F
330
1B6
100
AcDbDictionary
280
     1
281
     1
  0
DICTIONARY
  5
170
330
16F
100
AcDbDictionary
280
     1
281
     1
  3
BUMPTILE
360
172
  3
DIFFUSETILE
360
171
  3
OPACITYTILE
360
175
  3
REFLECTIONTILE
360
174
  3
REFRACTIONTILE
360
176
  3
SPECULARTILE
360
173
  0
DICTIONARY
  5
168
330
167
100
AcDbDictionary
280
     1
281
     1
  3
BUMPTILE
360
16A
  3
DIFFUSETILE
360
169
  3
OPACITYTILE
360
16D
  3
REFLECTIONTILE
360
16C
  3
REFRACTIONTILE
360
16E
  3
SPECULARTILE
360
16B
  0
DICTIONARY
  5
178
330
177
100
AcDbDictionary
280
     1
281
     1
  3
BUMPTILE
360
17A
  3
DIFFUSETILE
360
179
  3
OPACITYTILE
360
17D
  3
REFLECTIONTILE
360
17C
  3
REFRACTIONTILE
360
17E
  3
SPECULARTILE
360
17B
  0
DICTIONARY
  5
3E2
330
19A
100
AcDbDictionary
280
     1
281
     1
  3
ACAD_ROUNDTRIP_2008_TABLESTYLE_CELLSTYLEMAP
360
3E3
  0
XRECORD
  5
172
102
{ACAD_REACTORS
330
170
102
}
330
170
100
AcDbXrecord
280
     1
270
     1
271
     1
  0
XRECORD
  5
171
102
{ACAD_REACTORS
330
170
102
}
330
170
100
AcDbXrecord
280
     1
270
     1
271
     1
  0
XRECORD
  5
175
102
{ACAD_REACTORS
330
170
102
}
330
170
100
AcDbXrecord
280
     1
270
     1
271
     1
  0
XRECORD
  5
174
102
{ACAD_REACTORS
330
170
102
}
330
170
100
AcDbXrecord
280
     1
270
     1
271
     1
  0
XRECORD
  5
176
102
{ACAD_REACTORS
330
170
102
}
330
170
100
AcDbXrecord
280
     1
270
     1
271
     1
  0
XRECORD
  5
173
102
{ACAD_REACTORS
330
170
102
}
330
170
100
AcDbXrecord
280
     1
270
     1
271
     1
  0
XRECORD
  5
16A
102
{ACAD_REACTORS
330
168
102
}
330
168
100
AcDbXrecord
280
     1
270
     1
271
     1
  0
XRECORD
  5
169
102
{ACAD_REACTORS
330
168
102
}
330
168
100
AcDbXrecord
280
     1
270
     1
271
     1
  0
XRECORD
  5
16D
102
{ACAD_REACTORS
330
168
102
}
330
168
100
AcDbXrecord
280
     1
270
     1
271
     1
  0
XRECORD
  5
16C
102
{ACAD_REACTORS
330
168
102
}
330
168
100
AcDbXrecord
280
     1
270
     1
271
     1
  0
XRECORD
  5
16E
102
{ACAD_REACTORS
330
168
102
}
330
168
100
AcDbXrecord
280
     1
270
     1
271
     1
  0
XRECORD
  5
16B
102
{ACAD_REACTORS
330
168
102
}
330
168
100
AcDbXrecord
280
     1
270
     1
271
     1
  0
XRECORD
  5
17A
102
{ACAD_REACTORS
330
178
102
}
330
178
100
AcDbXrecord
280
     1
270
     1
271
     1
  0
XRECORD
  5
179
102
{ACAD_REACTORS
330
178
102
}
330
178
100
AcDbXrecord
280
     1
270
     1
271
     1
  0
XRECORD
  5
17D
102
{ACAD_REACTORS
330
178
102
}
330
178
100
AcDbXrecord
280
     1
270
     1
271
     1
  0
XRECORD
  5
17C
102
{ACAD_REACTORS
330
178
102
}
330
178
100
AcDbXrecord
280
     1
270
     1
271
     1
  0
XRECORD
  5
17E
102
{ACAD_REACTORS
330
178
102
}
330
178
100
AcDbXrecord
280
     1
270
     1
271
     1
  0
XRECORD
  5
17B
102
{ACAD_REACTORS
330
178
102
}
330
178
100
AcDbXrecord
280
     1
270
     1
271
     1
  0
CELLSTYLEMAP
  5
3E3
102
{ACAD_REACTORS
330
3E2
102
}
330
3E2
100
AcDbCellStyleMap
 90
        3
300
CELLSTYLE
  1
TABLEFORMAT_BEGIN
 90
        5
170
     1
 91
        0
 92
    32768
 62
   257
 93
        1
300
CONTENTFORMAT
  1
CONTENTFORMAT_BEGIN
 90
        0
 91
        0
 92
      512
 93
        0
300

 40
0.0
140
1.0
 94
        5
 62
     0
340
17
144
0.25
309
CONTENTFORMAT_END
171
     0
 94
        0
309
TABLEFORMAT_END
  1
CELLSTYLE_BEGIN
 90
        1
 91
        1
300
_TITLE
309
CELLSTYLE_END
300
CELLSTYLE
  1
TABLEFORMAT_BEGIN
 90
        5
170
     1
 91
        0
 92
        0
 62
   257
 93
        1
300
CONTENTFORMAT
  1
CONTENTFORMAT_BEGIN
 90
        0
 91
        0
 92
      512
 93
        0
300

 40
0.0
140
1.0
 94
        5
 62
     0
340
17
144
0.18
309
CONTENTFORMAT_END
171
     0
 94
        0
309
TABLEFORMAT_END
  1
CELLSTYLE_BEGIN
 90
        2
 91
        1
300
_HEADER
309
CELLSTYLE_END
300
CELLSTYLE
  1
TABLEFORMAT_BEGIN
 90
        5
170
     1
 91
        0
 92
        0
 62
   257
 93
        1
300
CONTENTFORMAT
  1
CONTENTFORMAT_BEGIN
 90
        0
 91
        0
 92
      512
 93
        0
300

 40
0.0
140
1.0
 94
        2
 62
     0
340
17
144
0.18
309
CONTENTFORMAT_END
171
     0
 94
        0
309
TABLEFORMAT_END
  1
CELLSTYLE_BEGIN
 90
        3
 91
        2
300
_DATA
309
CELLSTYLE_END
  0
ENDSEC
  0
SECTION
  2
ACDSDATA
 70
     2
 71
     2
  0
ACDSSCHEMA
 90
        0
  1
AcDb_Thumbnail_Schema
  2
AcDbDs::ID
280
    10
 91
        8
  2
Thumbnail_Data
280
    15
 91
        0
101
ACDSRECORD
 95
        0
 90
        1
  2
AcDbDs::TreatedAsObjectData
280
     1
291
     1
101
ACDSRECORD
 95
        0
 90
        2
  2
AcDbDs::Legacy
280
     1
291
     1
101
ACDSRECORD
  1
AcDbDs::ID
 90
        3
  2
AcDs:Indexable
280
     1
291
     1
101
ACDSRECORD
  1
AcDbDs::ID
 90
        4
  2
AcDbDs::HandleAttribute
280
     7
282
     1
  0
ACDSSCHEMA
 90
        1
  1
AcDbDs::TreatedAsObjectDataSchema
  2
AcDbDs::TreatedAsObjectData
280
     1
 91
        0
  0
ACDSSCHEMA
 90
        2
  1
AcDbDs::LegacySchema
  2
AcDbDs::Legacy
280
     1
 91
        0
  0
ACDSSCHEMA
 90
        3
  1
AcDbDs::IndexedPropertySchema
  2
AcDs:Indexable
280
     1
 91
        0
  0
ACDSSCHEMA
 90
        4
  1
AcDbDs::HandleAttributeSchema
  2
AcDbDs::HandleAttribute
280
     7
 91
        1
284
     1
  0
ACDSRECORD
 90
        0
  2
AcDbDs::ID
280
    10
320
1B6
  2
Thumbnail_Data
280
    15
 94
     1068
310
89504E470D0A1A0A0000000D49484452000001000000007D08030000007A674DFF00000300504C5445212830000000C8C8C80000000000000000000000000000000000000000000000000000330000660000990000CC0000FF0033000033330033660033990033CC0033FF0066000066330066660066990066CC0066FF0099
310
000099330099660099990099CC0099FF00CC0000CC3300CC6600CC9900CCCC00CCFF00FF0000FF3300FF6600FF9900FFCC00FFFF3300003300333300663300993300CC3300FF3333003333333333663333993333CC3333FF3366003366333366663366993366CC3366FF3399003399333399663399993399CC3399FF33CC00
310
33CC3333CC6633CC9933CCCC33CCFF33FF0033FF3333FF6633FF9933FFCC33FFFF6600006600336600666600996600CC6600FF6633006633336633666633996633CC6633FF6666006666336666666666996666CC6666FF6699006699336699666699996699CC6699FF66CC0066CC3366CC6666CC9966CCCC66CCFF66FF0066
310
FF3366FF6666FF9966FFCC66FFFF9900009900339900669900999900CC9900FF9933009933339933669933999933CC9933FF9966009966339966669966999966CC9966FF9999009999339999669999999999CC9999FF99CC0099CC3399CC6699CC9999CCCC99CCFF99FF0099FF3399FF6699FF9999FFCC99FFFFCC0000CC00
310
33CC0066CC0099CC00CCCC00FFCC3300CC3333CC3366CC3399CC33CCCC33FFCC6600CC6633CC6666CC6699CC66CCCC66FFCC9900CC9933CC9966CC9999CC99CCCC99FFCCCC00CCCC33CCCC66CCCC99CCCCCCCCCCFFCCFF00CCFF33CCFF66CCFF99CCFFCCCCFFFFFF0000FF0033FF0066FF0099FF00CCFF00FFFF3300FF3333
310
FF3366FF3399FF33CCFF33FFFF6600FF6633FF6666FF6699FF66CCFF66FFFF9900FF9933FF9966FF9999FF99CCFF99FFFFCC00FFCC33FFCC66FFCC99FFCCCCFFCCFFFFFF00FFFF33FFFF66FFFF99FFFFCCFFFFFF0000000D0D0D1A1A1A2828283535354343435050505D5D5D6B6B6B787878868686939393A1A1A1AEAEAEBB
310
BBBBC9C9C9D6D6D6E4E4E4F1F1F1FFFFFF000000000000000000000000000000000000000000000000000000000000B21171F6000000E74944415478DAEDD84B0EC2300C05405F28F7DFE556DD5335EE078ACA12299E01A140D9E42560A7110000000000000000000000C0839E9665D987FDEDDA7E61DA001E3EEACFDF9B65
310
F5DB667DDB727406D04E7DD6D5EF2D271E6D1F150B609B781C11C465AEB933C678D600C6A4633CF7C72580C3BC01DC9D014CBAF2692D7063E5DBC74B9500CAEF00FF015B00F72AD04A5581B8F7015167077CEF04EB04004065972A58B3E2FD3A0B5409E0AD07AA1740E4D45BC610F50288388E8379382A226F8808A06C00E5
310
7F02021040F900462B5CB71102000020B67B6437520100000000000000F88717B3319EB74AE7D1980000000049454E44AE426082
  0
ENDSEC
  0
EOF
