  0
SECTION
  2
HEADER
  9
$ACADVER
  1
AC1027
  9
$ACADMAINTVER
 70
     8
  9
$DWGCODEPAGE
  3
ANSI_932
  9
$LASTSAVEDBY
  1
SK_1F_mouse_201604
  9
$REQUIREDVERSIONS
160
                 0
  9
$INSBASE
 10
0.0
 20
0.0
 30
0.0
  9
$EXTMIN
 10
-1424.304883948774
 20
-72.60000000000001
 30
0.0
  9
$EXTMAX
 10
-1214.754467626829
 20
114.1035605635753
 30
0.0
  9
$LIMMIN
 10
0.0
 20
0.0
  9
$LIMMAX
 10
297.0
 20
210.0
  9
$ORTHOMODE
 70
     1
  9
$REGENMODE
 70
     1
  9
$FILLMODE
 70
     1
  9
$QTEXTMODE
 70
     0
  9
$MIRRTEXT
 70
     1
  9
$LTSCALE
 40
1.0
  9
$ATTMODE
 70
     1
  9
$TEXTSIZE
 40
0.0
  9
$TRACEWID
 40
0.05
  9
$TEXTSTYLE
  7
STANDARD
  9
$CLAYER
  8
寸法
  9
$CELTYPE
  6
CONTINUOUS
  9
$CECOLOR
 62
   256
  9
$CELTSCALE
 40
1.0
  9
$DISPSILH
 70
     0
  9
$DIMSCALE
 40
1.0
  9
$DIMASZ
 40
10.0
  9
$DIMEXO
 40
0.0625
  9
$DIMDLI
 40
0.38
  9
$DIMRND
 40
0.0
  9
$DIMDLE
 40
0.0
  9
$DIMEXE
 40
0.18
  9
$DIMTP
 40
0.0
  9
$DIMTM
 40
0.0
  9
$DIMTXT
 40
10.0
  9
$DIMCEN
 40
0.09
  9
$DIMTSZ
 40
0.0
  9
$DIMTOL
 70
     0
  9
$DIMLIM
 70
     0
  9
$DIMTIH
 70
     1
  9
$DIMTOH
 70
     1
  9
$DIMSE1
 70
     0
  9
$DIMSE2
 70
     0
  9
$DIMTAD
 70
     0
  9
$DIMZIN
 70
     0
  9
$DIMBLK
  1
Open30
  9
$DIMASO
 70
     1
  9
$DIMSHO
 70
     1
  9
$DIMPOST
  1

  9
$DIMAPOST
  1

  9
$DIMALT
 70
     0
  9
$DIMALTD
 70
     2
  9
$DIMALTF
 40
25.4
  9
$DIMLFAC
 40
1.0
  9
$DIMTOFL
 70
     0
  9
$DIMTVP
 40
0.0
  9
$DIMTIX
 70
     0
  9
$DIMSOXD
 70
     0
  9
$DIMSAH
 70
     0
  9
$DIMBLK1
  1

  9
$DIMBLK2
  1

  9
$DIMSTYLE
  2
大
  9
$DIMCLRD
 70
     1
  9
$DIMCLRE
 70
     0
  9
$DIMCLRT
 70
     7
  9
$DIMTFAC
 40
1.0
  9
$DIMGAP
 40
0.09
  9
$DIMJUST
 70
     0
  9
$DIMSD1
 70
     0
  9
$DIMSD2
 70
     0
  9
$DIMTOLJ
 70
     1
  9
$DIMTZIN
 70
     0
  9
$DIMALTZ
 70
     0
  9
$DIMALTTZ
 70
     0
  9
$DIMUPT
 70
     0
  9
$DIMDEC
 70
     0
  9
$DIMTDEC
 70
     0
  9
$DIMALTU
 70
     2
  9
$DIMALTTD
 70
     2
  9
$DIMTXSTY
  7
STANDARD
  9
$DIMAUNIT
 70
     0
  9
$DIMADEC
 70
     0
  9
$DIMALTRND
 40
0.0
  9
$DIMAZIN
 70
     0
  9
$DIMDSEP
 70
    46
  9
$DIMATFIT
 70
     3
  9
$DIMFRAC
 70
     0
  9
$DIMLDRBLK
  1

  9
$DIMLUNIT
 70
     2
  9
$DIMLWD
 70
    -2
  9
$DIMLWE
 70
    -2
  9
$DIMTMOVE
 70
     0
  9
$DIMFXL
 40
1.0
  9
$DIMFXLON
 70
     0
  9
$DIMJOGANG
 40
0.7853981633974483
  9
$DIMTFILL
 70
     0
  9
$DIMTFILLCLR
 70
     0
  9
$DIMARCSYM
 70
     0
  9
$DIMLTYPE
  6

  9
$DIMLTEX1
  6

  9
$DIMLTEX2
  6

  9
$DIMTXTDIRECTION
 70
     0
  9
$LUNITS
 70
     2
  9
$LUPREC
 70
     4
  9
$SKETCHINC
 40
0.1
  9
$FILLETRAD
 40
0.0
  9
$AUNITS
 70
     0
  9
$AUPREC
 70
     0
  9
$MENU
  1
acad
  9
$ELEVATION
 40
0.0
  9
$PELEVATION
 40
0.0
  9
$THICKNESS
 40
0.0
  9
$LIMCHECK
 70
     0
  9
$CHAMFERA
 40
0.0
  9
$CHAMFERB
 40
0.0
  9
$CHAMFERC
 40
0.0
  9
$CHAMFERD
 40
0.0
  9
$SKPOLY
 70
     0
  9
$TDCREATE
 40
2305824.175156401
  9
$TDUCREATE
 40
2305823.800156401
  9
$TDUPDATE
 40
2457994.561252107
  9
$TDUUPDATE
 40
2457994.186252106
  9
$TDINDWG
 40
0.1249070370
  9
$TDUSRTIMER
 40
0.1249070370
  9
$USRTIMER
 70
     1
  9
$ANGBASE
 50
0.0
  9
$ANGDIR
 70
     0
  9
$PDMODE
 70
     0
  9
$PDSIZE
 40
0.0
  9
$PLINEWID
 40
0.0
  9
$SPLFRAME
 70
     0
  9
$SPLINETYPE
 70
     6
  9
$SPLINESEGS
 70
     8
  9
$HANDSEED
  5
76E
  9
$SURFTAB1
 70
     6
  9
$SURFTAB2
 70
     6
  9
$SURFTYPE
 70
     6
  9
$SURFU
 70
     6
  9
$SURFV
 70
     6
  9
$UCSBASE
  2

  9
$UCSNAME
  2

  9
$UCSORG
 10
0.0
 20
0.0
 30
0.0
  9
$UCSXDIR
 10
1.0
 20
0.0
 30
0.0
  9
$UCSYDIR
 10
0.0
 20
1.0
 30
0.0
  9
$UCSORTHOREF
  2

  9
$UCSORTHOVIEW
 70
     0
  9
$UCSORGTOP
 10
0.0
 20
0.0
 30
0.0
  9
$UCSORGBOTTOM
 10
0.0
 20
0.0
 30
0.0
  9
$UCSORGLEFT
 10
0.0
 20
0.0
 30
0.0
  9
$UCSORGRIGHT
 10
0.0
 20
0.0
 30
0.0
  9
$UCSORGFRONT
 10
0.0
 20
0.0
 30
0.0
  9
$UCSORGBACK
 10
0.0
 20
0.0
 30
0.0
  9
$PUCSBASE
  2

  9
$PUCSNAME
  2

  9
$PUCSORG
 10
0.0
 20
0.0
 30
0.0
  9
$PUCSXDIR
 10
1.0
 20
0.0
 30
0.0
  9
$PUCSYDIR
 10
0.0
 20
1.0
 30
0.0
  9
$PUCSORTHOREF
  2

  9
$PUCSORTHOVIEW
 70
     0
  9
$PUCSORGTOP
 10
0.0
 20
0.0
 30
0.0
  9
$PUCSORGBOTTOM
 10
0.0
 20
0.0
 30
0.0
  9
$PUCSORGLEFT
 10
0.0
 20
0.0
 30
0.0
  9
$PUCSORGRIGHT
 10
0.0
 20
0.0
 30
0.0
  9
$PUCSORGFRONT
 10
0.0
 20
0.0
 30
0.0
  9
$PUCSORGBACK
 10
0.0
 20
0.0
 30
0.0
  9
$USERI1
 70
     0
  9
$USERI2
 70
     0
  9
$USERI3
 70
     0
  9
$USERI4
 70
     0
  9
$USERI5
 70
     0
  9
$USERR1
 40
0.0
  9
$USERR2
 40
0.0
  9
$USERR3
 40
0.0
  9
$USERR4
 40
0.0
  9
$USERR5
 40
0.0
  9
$WORLDVIEW
 70
     1
  9
$SHADEDGE
 70
     3
  9
$SHADEDIF
 70
    70
  9
$TILEMODE
 70
     1
  9
$MAXACTVP
 70
    16
  9
$PINSBASE
 10
0.0
 20
0.0
 30
0.0
  9
$PLIMCHECK
 70
     0
  9
$PEXTMIN
 10
1.129416638471948
 20
0.7870833686017616
 30
0.0
  9
$PEXTMAX
 10
10.16474974624754
 20
7.083750317415853
 30
0.0
  9
$PLIMMIN
 10
-0.1979161059762549
 20
-0.1979166503966324
  9
$PLIMMAX
 10
11.4920836921752
 20
8.068749791993869
  9
$UNITMODE
 70
     0
  9
$VISRETAIN
 70
     0
  9
$PLINEGEN
 70
     1
  9
$PSLTSCALE
 70
     0
  9
$TREEDEPTH
 70
  3020
  9
$CMLSTYLE
  2
STANDARD
  9
$CMLJUST
 70
     0
  9
$CMLSCALE
 40
1.0
  9
$PROXYGRAPHICS
 70
     1
  9
$MEASUREMENT
 70
     0
  9
$CELWEIGHT
370
    -1
  9
$ENDCAPS
280
     0
  9
$JOINSTYLE
280
     0
  9
$LWDISPLAY
290
     0
  9
$INSUNITS
 70
     0
  9
$HYPERLINKBASE
  1

  9
$STYLESHEET
  1

  9
$XEDIT
290
     1
  9
$CEPSNTYPE
380
     0
  9
$PSTYLEMODE
290
     1
  9
$FINGERPRINTGUID
  2
{79C0D323-7957-484B-B878-0ABBB3B9A02E}
  9
$VERSIONGUID
  2
{4B54C726-7384-4AD9-B158-18E7E741B22C}
  9
$EXTNAMES
290
     1
  9
$PSVPSCALE
 40
0.0
  9
$OLESTARTUP
290
     0
  9
$SORTENTS
280
   127
  9
$INDEXCTL
280
     0
  9
$HIDETEXT
280
     0
  9
$XCLIPFRAME
280
     2
  9
$HALOGAP
280
     0
  9
$OBSCOLOR
 70
   257
  9
$OBSLTYPE
280
     0
  9
$INTERSECTIONDISPLAY
280
     0
  9
$INTERSECTIONCOLOR
 70
   257
  9
$DIMASSOC
280
     1
  9
$PROJECTNAME
  1

  9
$CAMERADISPLAY
290
     0
  9
$LENSLENGTH
 40
50.0
  9
$CAMERAHEIGHT
 40
0.0
  9
$STEPSPERSEC
 40
2.0
  9
$STEPSIZE
 40
6.0
  9
$3DDWFPREC
 40
2.0
  9
$PSOLWIDTH
 40
0.25
  9
$PSOLHEIGHT
 40
4.0
  9
$LOFTANG1
 40
1.570796326794896
  9
$LOFTANG2
 40
1.570796326794896
  9
$LOFTMAG1
 40
0.0
  9
$LOFTMAG2
 40
0.0
  9
$LOFTPARAM
 70
     7
  9
$LOFTNORMALS
280
     1
  9
$LATITUDE
 40
37.795
  9
$LONGITUDE
 40
-122.394
  9
$NORTHDIRECTION
 40
0.0
  9
$TIMEZONE
 70
 -8000
  9
$LIGHTGLYPHDISPLAY
280
     1
  9
$TILEMODELIGHTSYNCH
280
     1
  9
$CMATERIAL
347
166
  9
$SOLIDHIST
280
     0
  9
$SHOWHIST
280
     1
  9
$DWFFRAME
280
     2
  9
$DGNFRAME
280
     0
  9
$REALWORLDSCALE
290
     1
  9
$INTERFERECOLOR
 62
     1
  9
$INTERFEREOBJVS
345
188
  9
$INTERFEREVPVS
346
185
  9
$CSHADOW
280
     0
  9
$SHADOWPLANELOCATION
 40
0.0
  0
ENDSEC
  0
SECTION
  2
CLASSES
  0
CLASS
  1
IMAGE
  2
AcDbRasterImage
  3
ISM
 90
     2175
 91
        0
280
     0
281
     1
  0
CLASS
  1
DICTIONARYVAR
  2
AcDbDictionaryVar
  3
ObjectDBX Classes
 90
        0
 91
        9
280
     0
281
     0
  0
CLASS
  1
RASTERVARIABLES
  2
AcDbRasterVariables
  3
ISM
 90
        0
 91
        0
280
     0
281
     0
  0
CLASS
  1
IMAGEDEF
  2
AcDbRasterImageDef
  3
ISM
 90
        0
 91
        0
280
     0
281
     0
  0
CLASS
  1
IMAGEDEF_REACTOR
  2
AcDbRasterImageDefReactor
  3
ISM
 90
        1
 91
        0
280
     0
281
     0
  0
CLASS
  1
IDBUFFER
  2
AcDbIdBuffer
  3
ObjectDBX Classes
 90
        0
 91
        0
280
     0
281
     0
  0
CLASS
  1
SPATIAL_FILTER
  2
AcDbSpatialFilter
  3
ObjectDBX Classes
 90
        0
 91
        0
280
     0
281
     0
  0
CLASS
  1
SORTENTSTABLE
  2
AcDbSortentsTable
  3
ObjectDBX Classes
 90
        0
 91
        1
280
     0
281
     0
  0
CLASS
  1
LAYER_INDEX
  2
AcDbLayerIndex
  3
ObjectDBX Classes
 90
        0
 91
        0
280
     0
281
     0
  0
CLASS
  1
SPATIAL_INDEX
  2
AcDbSpatialIndex
  3
ObjectDBX Classes
 90
        0
 91
        0
280
     0
281
     0
  0
CLASS
  1
OBJECT_PTR
  2
CAseDLPNTableRecord
  3
"ASE-LPNTableRecord"
 90
        0
 91
        0
280
     0
281
     0
  0
CLASS
  1
PLOTSETTINGS
  2
AcDbPlotSettings
  3
ObjectDBX Classes
 90
        0
 91
        0
280
     0
281
     0
  0
CLASS
  1
ACDBDICTIONARYWDFLT
  2
AcDbDictionaryWithDefault
  3
ObjectDBX Classes
 90
        0
 91
        1
280
     0
281
     0
  0
CLASS
  1
WIPEOUT
  2
AcDbWipeout
  3
WipeOut|Product Desc: Object Enabler for WipeOut entity | Company: Autodesk, Inc. | WEB Address: www.autodesk.com
 90
     2175
 91
        0
280
     0
281
     1
  0
CLASS
  1
WIPEOUTVARIABLES
  2
AcDbWipeoutVariables
  3
"WipeOut|Product Desc:     WipeOut Dbx Application|Company:          Autodesk, Inc.|WEB Address:      www.autodesk.com"
 90
        0
 91
        0
280
     0
281
     0
  0
CLASS
  1
RTEXT
  2
RText
  3
RText|AutoCAD Express Tool|expresstools@autodesk.com
 90
        0
 91
        0
280
     0
281
     1
  0
CLASS
  1
ARCALIGNEDTEXT
  2
AcDbArcAlignedText
  3
ATEXT|AutoCAD Express Tool|expresstools@autodesk.com
 90
        0
 91
        0
280
     0
281
     1
  0
CLASS
  1
MATERIAL
  2
AcDbMaterial
  3
ObjectDBX Classes
 90
     1153
 91
        3
280
     0
281
     0
  0
CLASS
  1
VISUALSTYLE
  2
AcDbVisualStyle
  3
ObjectDBX Classes
 90
     4095
 91
       24
280
     0
281
     0
  0
CLASS
  1
TABLESTYLE
  2
AcDbTableStyle
  3
ObjectDBX Classes
 90
     4095
 91
        1
280
     0
281
     0
  0
CLASS
  1
SCALE
  2
AcDbScale
  3
ObjectDBX Classes
 90
     1153
 91
       17
280
     0
281
     0
  0
CLASS
  1
MLEADERSTYLE
  2
AcDbMLeaderStyle
  3
ACDB_MLEADERSTYLE_CLASS
 90
     4095
 91
        1
280
     0
281
     0
  0
CLASS
  1
ACDBSECTIONVIEWSTYLE
  2
AcDbSectionViewStyle
  3
ObjectDBX Classes
 90
     1025
 91
        1
280
     0
281
     0
  0
CLASS
  1
ACDBDETAILVIEWSTYLE
  2
AcDbDetailViewStyle
  3
ObjectDBX Classes
 90
     1025
 91
        1
280
     0
281
     0
  0
CLASS
  1
ACARRAYJIGENTITY
  2
AcArrayJigEntity
  3
ACAD_ARRAY
 90
      129
 91
        0
280
     0
281
     1
  0
CLASS
  1
ACDBASSOCNETWORK
  2
AcDbAssocNetwork
  3
ObjectDBX Classes
 90
     1025
 91
        0
280
     0
281
     0
  0
CLASS
  1
ACDBASSOCACTION
  2
AcDbAssocAction
  3
ObjectDBX Classes
 90
     1025
 91
        0
280
     0
281
     0
  0
CLASS
  1
ACDBASSOCARRAYACTIONBODY
  2
AcDbAssocArrayActionBody
  3
ObjectDBX Classes
 90
     1025
 91
        0
280
     0
281
     0
  0
CLASS
  1
ACDBASSOCVERTEXACTIONPARAM
  2
AcDbAssocVertexActionParam
  3
ObjectDBX Classes
 90
     1025
 91
        0
280
     0
281
     0
  0
CLASS
  1
ACDBASSOCDEPENDENCY
  2
AcDbAssocDependency
  3
ObjectDBX Classes
 90
     1025
 91
        0
280
     0
281
     0
  0
CLASS
  1
ACDBASSOCARRAYRECTANGULARPARAMETERS
  2
AcDbAssocArrayRectangularParameters
  3
ObjectDBX Classes
 90
     1025
 91
        0
280
     0
281
     0
  0
CLASS
  1
CELLSTYLEMAP
  2
AcDbCellStyleMap
  3
ObjectDBX Classes
 90
     1152
 91
        1
280
     0
281
     0
  0
ENDSEC
  0
SECTION
  2
TABLES
  0
TABLE
  2
VPORT
  5
7
330
0
100
AcDbSymbolTable
 70
     1
  0
VPORT
  5
15
330
7
100
AcDbSymbolTableRecord
100
AcDbViewportTableRecord
  2
*ACTIVE
 70
     0
 10
0.0
 20
0.0
 11
1.0
 21
1.0
 12
-1269.254277330558
 22
153.147375982683
 13
0.0
 23
0.0
 14
1.0
 24
1.0
 15
0.0
 25
0.0
 16
0.0
 26
0.0
 36
1.0
 17
0.0
 27
0.0
 37
0.0
 40
490.0830981691479
 41
1.695167286245353
 42
50.0
 43
0.0
 44
0.0
 50
0.0
 51
0.0
 71
     0
 72
   100
 73
     1
 74
     1
 75
     0
 76
     1
 77
     0
 78
     0
281
     0
 65
     1
110
0.0
120
0.0
130
0.0
111
1.0
121
0.0
131
0.0
112
0.0
122
1.0
132
0.0
 79
     0
146
0.0
348
184
 60
     3
 61
     5
292
     1
282
     1
141
0.0
142
0.0
 63
   250
421
  3355443
1001
ACAD_NAV_VCDISPLAY
1070
     3
  0
ENDTAB
  0
TABLE
  2
LTYPE
  5
4
330
0
100
AcDbSymbolTable
 70
     6
  0
LTYPE
  5
11
330
4
100
AcDbSymbolTableRecord
100
AcDbLinetypeTableRecord
  2
BYBLOCK
 70
     0
  3

 72
    65
 73
     0
 40
0.0
  0
LTYPE
  5
12
330
4
100
AcDbSymbolTableRecord
100
AcDbLinetypeTableRecord
  2
BYLAYER
 70
     0
  3

 72
    65
 73
     0
 40
0.0
  0
LTYPE
  5
13
330
4
100
AcDbSymbolTableRecord
100
AcDbLinetypeTableRecord
  2
CONTINUOUS
 70
     0
  3
実線
 72
    65
 73
     0
 40
0.0
  0
LTYPE
  5
1D
330
4
100
AcDbSymbolTableRecord
100
AcDbLinetypeTableRecord
  2
DASHED
 70
     0
  3
破線
 72
    65
 73
     2
 40
3.799999999999999
 49
3.0
 74
     0
 49
-0.8
 74
     0
  0
LTYPE
  5
1E
330
4
100
AcDbSymbolTableRecord
100
AcDbLinetypeTableRecord
  2
DOT
 70
     0
  3
点線
 72
    65
 73
     2
 40
2.0
 49
1.0
 74
     0
 49
-1.0
 74
     0
  0
LTYPE
  5
1F
330
4
100
AcDbSymbolTableRecord
100
AcDbLinetypeTableRecord
  2
DASHDOT
 70
     0
  3
一点鎖線
 72
    65
 73
     4
 40
25.6
 49
20.0
 74
     0
 49
-2.0
 74
     0
 49
1.6
 74
     0
 49
-2.0
 74
     0
  0
LTYPE
  5
20
330
4
100
AcDbSymbolTableRecord
100
AcDbLinetypeTableRecord
  2
DIVIDE
 70
     0
  3
二点鎖線
 72
    65
 73
     6
 40
31.2
 49
20.0
 74
     0
 49
-2.399999999999999
 74
     0
 49
2.0
 74
     0
 49
-2.399999999999999
 74
     0
 49
2.0
 74
     0
 49
-2.399999999999999
 74
     0
  0
LTYPE
  5
1AF
330
4
100
AcDbSymbolTableRecord
100
AcDbLinetypeTableRecord
  2
PHANTOM2
 70
     0
  3
___ _ _ ___ _ _ ___ _ _ ___ _ _
 72
    65
 73
     6
 40
1.25
 49
0.625
 74
     0
 49
-0.125
 74
     0
 49
0.125
 74
     0
 49
-0.125
 74
     0
 49
0.125
 74
     0
 49
-0.125
 74
     0
  0
ENDTAB
  0
TABLE
  2
LAYER
  5
2
102
{ACAD_XDICTIONARY
360
1C4
102
}
330
0
100
AcDbSymbolTable
 70
     4
  0
LAYER
  5
14
102
{ACAD_XDICTIONARY
360
1BB
102
}
330
2
100
AcDbSymbolTableRecord
100
AcDbLayerTableRecord
  2
0
 70
     0
 62
     7
  6
CONTINUOUS
370
    -3
390
164
347
176
348
0
  0
LAYER
  5
25
102
{ACAD_XDICTIONARY
360
1BD
102
}
330
2
100
AcDbSymbolTableRecord
100
AcDbLayerTableRecord
  2
製肘
 70
     0
 62
     4
  6
CONTINUOUS
370
    -3
390
164
347
176
348
0
  0
LAYER
  5
26
102
{ACAD_XDICTIONARY
360
1BF
102
}
330
2
100
AcDbSymbolTableRecord
100
AcDbLayerTableRecord
  2
寸法
 70
     0
 62
     1
  6
CONTINUOUS
370
    -3
390
164
347
176
348
0
  0
LAYER
  5
235
330
2
100
AcDbSymbolTableRecord
100
AcDbLayerTableRecord
  2
Defpoints
 70
     0
 62
     7
  6
CONTINUOUS
290
     0
370
    -3
390
164
347
176
348
0
  0
ENDTAB
  0
TABLE
  2
STYLE
  5
3
330
0
100
AcDbSymbolTable
 70
     5
  0
STYLE
  5
17
330
3
100
AcDbSymbolTableRecord
100
AcDbTextStyleTableRecord
  2
STANDARD
 70
     0
 40
0.0
 41
1.0
 50
0.0
 71
     0
 42
0.0
  3
monotxt
  4

  0
STYLE
  5
21
330
3
100
AcDbSymbolTableRecord
100
AcDbTextStyleTableRecord
  2
EXCADSTD
 70
     0
 40
0.0
 41
1.0
 50
0.0
 71
     0
 42
0.2
  3
monotxt
  4
extfont
  0
STYLE
  5
22
330
3
100
AcDbSymbolTableRecord
100
AcDbTextStyleTableRecord
  2
EXCADVERT
 70
     4
 40
0.0
 41
1.0
 50
0.0
 71
     0
 42
0.286885
  3
monotxt
  4
extfont
  0
STYLE
  5
23
330
3
100
AcDbSymbolTableRecord
100
AcDbTextStyleTableRecord
  2
EXCADSTD2
 70
     0
 40
0.0
 41
1.0
 50
0.0
 71
     0
 42
0.2
  3
monotxt
  4
extfont
  0
STYLE
  5
24
330
3
100
AcDbSymbolTableRecord
100
AcDbTextStyleTableRecord
  2
EXCADVERT2
 70
     4
 40
0.0
 41
1.0
 50
0.0
 71
     0
 42
0.286885
  3
monotxt
  4
extfont
  0
ENDTAB
  0
TABLE
  2
VIEW
  5
5
330
0
100
AcDbSymbolTable
 70
     0
  0
ENDTAB
  0
TABLE
  2
UCS
  5
6
330
0
100
AcDbSymbolTable
 70
     0
  0
ENDTAB
  0
TABLE
  2
APPID
  5
8
330
0
100
AcDbSymbolTable
 70
     8
  0
APPID
  5
16
330
8
100
AcDbSymbolTableRecord
100
AcDbRegAppTableRecord
  2
ACAD
 70
     0
  0
APPID
  5
1CA
330
8
100
AcDbSymbolTableRecord
100
AcDbRegAppTableRecord
  2
ACAD_NAV_VCDISPLAY
 70
     0
  0
APPID
  5
21B
330
8
100
AcDbSymbolTableRecord
100
AcDbRegAppTableRecord
  2
ACAD_DSTYLE_DIMJAG
 70
     0
  0
APPID
  5
21C
330
8
100
AcDbSymbolTableRecord
100
AcDbRegAppTableRecord
  2
ACAD_DSTYLE_DIMBREAK
 70
     0
  0
APPID
  5
21D
330
8
100
AcDbSymbolTableRecord
100
AcDbRegAppTableRecord
  2
ACAD_DSTYLE_DIMTALN
 70
     0
  0
APPID
  5
282
330
8
100
AcDbSymbolTableRecord
100
AcDbRegAppTableRecord
  2
ACAD_PSEXT
 70
     0
  0
APPID
  5
29F
330
8
100
AcDbSymbolTableRecord
100
AcDbRegAppTableRecord
  2
ACAD_EXEMPT_FROM_CAD_STANDARDS
 70
     0
  0
APPID
  5
50D
330
8
100
AcDbSymbolTableRecord
100
AcDbRegAppTableRecord
  2
AcadAnnoMonitorAlertIconDisabled
 70
     0
  0
ENDTAB
  0
TABLE
  2
DIMSTYLE
  5
9
330
0
100
AcDbSymbolTable
 70
     2
100
AcDbDimStyleTable
 71
     2
340
21E
340
18
  0
DIMSTYLE
105
18
330
9
100
AcDbSymbolTableRecord
100
AcDbDimStyleTableRecord
  2
STANDARD
 70
     0
289
     0
340
17
  0
DIMSTYLE
105
21E
102
{ACAD_REACTORS
330
4C4
330
54B
330
5BF
330
707
102
}
330
9
100
AcDbSymbolTableRecord
100
AcDbDimStyleTableRecord
  2
大
 70
     0
 41
10.0
140
10.0
176
     1
178
     7
271
     0
272
     0
340
17
342
22E
1001
ACAD_DSTYLE_DIMBREAK
1070
   391
1040
0.125
1001
ACAD_DSTYLE_DIMJAG
1070
   388
1040
1.5
1001
ACAD_DSTYLE_DIMTALN
1070
   392
1070
     0
  0
ENDTAB
  0
TABLE
  2
BLOCK_RECORD
  5
1
330
0
100
AcDbSymbolTable
 70
    17
  0
BLOCK_RECORD
  5
A
102
{ACAD_XDICTIONARY
360
385
102
}
330
1
100
AcDbSymbolTableRecord
100
AcDbBlockTableRecord
  2
*MODEL_SPACE
340
1B5
 70
     0
280
     1
281
     0
  0
BLOCK_RECORD
  5
B
330
1
100
AcDbSymbolTableRecord
100
AcDbBlockTableRecord
  2
*PAPER_SPACE
340
1B6
 70
     0
280
     1
281
     0
  0
BLOCK_RECORD
  5
27
330
1
100
AcDbSymbolTableRecord
100
AcDbBlockTableRecord
  2
_EX_NORM
340
0
 70
     0
280
     1
281
     0
  0
BLOCK_RECORD
  5
28
330
1
100
AcDbSymbolTableRecord
100
AcDbBlockTableRecord
  2
_EX_BNORM
340
0
 70
     0
280
     1
281
     0
  0
BLOCK_RECORD
  5
29
330
1
100
AcDbSymbolTableRecord
100
AcDbBlockTableRecord
  2
_EX_BCIR
340
0
 70
     0
280
     1
281
     0
  0
BLOCK_RECORD
  5
2A
330
1
100
AcDbSymbolTableRecord
100
AcDbBlockTableRecord
  2
_EX_RCIVIL
340
0
 70
     0
280
     1
281
     0
  0
BLOCK_RECORD
  5
2B
330
1
100
AcDbSymbolTableRecord
100
AcDbBlockTableRecord
  2
_EX_SLANT
340
0
 70
     0
280
     1
281
     0
  0
BLOCK_RECORD
  5
2C
330
1
100
AcDbSymbolTableRecord
100
AcDbBlockTableRecord
  2
_EX_NONE
340
0
 70
     0
280
     1
281
     0
  0
BLOCK_RECORD
  5
2D
330
1
100
AcDbSymbolTableRecord
100
AcDbBlockTableRecord
  2
_EX_CIVIL
340
0
 70
     0
280
     1
281
     0
  0
BLOCK_RECORD
  5
2E
330
1
100
AcDbSymbolTableRecord
100
AcDbBlockTableRecord
  2
_EX_WCIR
340
0
 70
     0
280
     1
281
     0
  0
BLOCK_RECORD
  5
22E
330
1
100
AcDbSymbolTableRecord
100
AcDbBlockTableRecord
  2
_Open30
340
0
102
{BLKREFS
331
666
331
667
331
670
331
671
331
742
331
743
331
756
331
757
102
}
 70
     0
280
     1
281
     0
  0
BLOCK_RECORD
  5
38B
330
1
100
AcDbSymbolTableRecord
100
AcDbBlockTableRecord
  2
1
340
0
310
2800000020000000200000000100080000000000000400000000000000000000000000000000000000000000000080000080000000808000800000008000800080800000C0C0C000C0DCC000F0CAA6000020400000206000002080000020A0000020C0000020E00000400000004020000040400000406000004080000040A0
310
000040C0000040E00000600000006020000060400000606000006080000060A0000060C0000060E00000800000008020000080400000806000008080000080A0000080C0000080E00000A0000000A0200000A0400000A0600000A0800000A0A00000A0C00000A0E00000C0000000C0200000C0400000C0600000C0800000C0
310
A00000C0C00000C0E00000E0000000E0200000E0400000E0600000E0800000E0A00000E0C00000E0E00040000000400020004000400040006000400080004000A0004000C0004000E00040200000402020004020400040206000402080004020A0004020C0004020E000404000004040200040404000404060004040800040
310
40A0004040C0004040E00040600000406020004060400040606000406080004060A0004060C0004060E00040800000408020004080400040806000408080004080A0004080C0004080E00040A0000040A0200040A0400040A0600040A0800040A0A00040A0C00040A0E00040C0000040C0200040C0400040C0600040C08000
310
40C0A00040C0C00040C0E00040E0000040E0200040E0400040E0600040E0800040E0A00040E0C00040E0E00080000000800020008000400080006000800080008000A0008000C0008000E00080200000802020008020400080206000802080008020A0008020C0008020E00080400000804020008040400080406000804080
310
008040A0008040C0008040E00080600000806020008060400080606000806080008060A0008060C0008060E00080800000808020008080400080806000808080008080A0008080C0008080E00080A0000080A0200080A0400080A0600080A0800080A0A00080A0C00080A0E00080C0000080C0200080C0400080C0600080C0
310
800080C0A00080C0C00080C0E00080E0000080E0200080E0400080E0600080E0800080E0A00080E0C00080E0E000C0000000C0002000C0004000C0006000C0008000C000A000C000C000C000E000C0200000C0202000C0204000C0206000C0208000C020A000C020C000C020E000C0400000C0402000C0404000C0406000C0
310
408000C040A000C040C000C040E000C0600000C0602000C0604000C0606000C0608000C060A000C060C000C060E000C0800000C0802000C0804000C0806000C0808000C080A000C080C000C080E000C0A00000C0A02000C0A04000C0A06000C0A08000C0A0A000C0A0C000C0A0E000C0C00000C0C02000C0C04000C0C06000
310
C0C08000C0C0A000F0FBFF00A4A0A000808080000000FF0000FF000000FFFF00FF000000FF00FF00FFFF0000FFFFFF0049494949494949494949494949494949494949494949494949494949494949494949494949494949494949494949494949494949494949494949494949494949494949494949494949494949494949
310
49494949494949494949494949494949494949494949494949494949494949494949494949494949494949494949494949494949494949494949494949494949494949494949494949494949494949494949494949494949494949494949494949494949494949494949494949494949494949494949494949494949494949
310
49494949494949494949494949494949494949494949494949494949494949494949494949494949494949494949494949494949494949494949494949494949494949494949494949494949494949494949494949494949494949494949494949494949494949494949494949494949494949FEFEFEFEFE4949494949FEFE
310
FEFEFEFEFEFEFEFE4949494949FEFEFEFEFE4949FEFE4949FE4949494949FE494949FEFE494949FE4949494949FE4949FEFE4949FEFE4949FE4949494949FE494949FEFE494949FE4949494949FE4949FEFE4949FEFE4949FE4949494949FE494949FEFE494949FE4949494949FE4949FEFE4949FEFE4949FE4949494949FE
310
494949FEFE494949FE4949494949FE4949FEFE4949FEFE4949FE4949494949FE494949FEFE494949FE4949494949FE4949FEFE4949FEFE4949FEFEFEFEFEFEFEFE4949FEFE4949FEFEFEFEFEFEFEFE4949FEFE4949FEFE4949FE494949494949FE4949FEFE4949FE494949494949FE4949FEFE4949FEFEFEFEFE4949494949
310
49FEFEFEFEFEFEFEFE494949494949FEFEFEFEFE4949FEFEFEFEFE494949494949FE49FEFEFEFE49FE494949494949FEFEFEFEFE4949FEFEFEFEFEFEFEFEFEFEFEFEFEFEFEFEFEFEFEFEFEFEFEFEFEFEFEFEFEFE4949FEFEFEFEFEFEFEFEFEFEFEFEFEFEFEFEFEFEFEFEFEFEFEFEFEFEFEFEFEFE4949494949494949494949
310
49494949494949494949494949494949494949494949494949494949494949494949494949494949494949494949494949494949494949494949494949494949494949494949494949494949494949494949494949494949494949494949494949494949494949494949494949494949494949494949494949494949494949
310
49494949494949494949494949494949494949494949494949494949494949494949494949494949494949494949494949494949494949494949494949494949494949494949494949494949494949494949494949494949494949494949494949494949494949494949494949494949494949494949494949494949494949
310
4949494949494949494949494949494949494949494949494949494949494949494949494949494949494949494949494949494949494949
 70
     0
280
     1
281
     0
  0
BLOCK_RECORD
  5
3D7
330
1
100
AcDbSymbolTableRecord
100
AcDbBlockTableRecord
  2
2
340
0
310
2800000020000000200000000100080000000000000400000000000000000000000000000000000000000000000080000080000000808000800000008000800080800000C0C0C000C0DCC000F0CAA6000020400000206000002080000020A0000020C0000020E00000400000004020000040400000406000004080000040A0
310
000040C0000040E00000600000006020000060400000606000006080000060A0000060C0000060E00000800000008020000080400000806000008080000080A0000080C0000080E00000A0000000A0200000A0400000A0600000A0800000A0A00000A0C00000A0E00000C0000000C0200000C0400000C0600000C0800000C0
310
A00000C0C00000C0E00000E0000000E0200000E0400000E0600000E0800000E0A00000E0C00000E0E00040000000400020004000400040006000400080004000A0004000C0004000E00040200000402020004020400040206000402080004020A0004020C0004020E000404000004040200040404000404060004040800040
310
40A0004040C0004040E00040600000406020004060400040606000406080004060A0004060C0004060E00040800000408020004080400040806000408080004080A0004080C0004080E00040A0000040A0200040A0400040A0600040A0800040A0A00040A0C00040A0E00040C0000040C0200040C0400040C0600040C08000
310
40C0A00040C0C00040C0E00040E0000040E0200040E0400040E0600040E0800040E0A00040E0C00040E0E00080000000800020008000400080006000800080008000A0008000C0008000E00080200000802020008020400080206000802080008020A0008020C0008020E00080400000804020008040400080406000804080
310
008040A0008040C0008040E00080600000806020008060400080606000806080008060A0008060C0008060E00080800000808020008080400080806000808080008080A0008080C0008080E00080A0000080A0200080A0400080A0600080A0800080A0A00080A0C00080A0E00080C0000080C0200080C0400080C0600080C0
310
800080C0A00080C0C00080C0E00080E0000080E0200080E0400080E0600080E0800080E0A00080E0C00080E0E000C0000000C0002000C0004000C0006000C0008000C000A000C000C000C000E000C0200000C0202000C0204000C0206000C0208000C020A000C020C000C020E000C0400000C0402000C0404000C0406000C0
310
408000C040A000C040C000C040E000C0600000C0602000C0604000C0606000C0608000C060A000C060C000C060E000C0800000C0802000C0804000C0806000C0808000C080A000C080C000C080E000C0A00000C0A02000C0A04000C0A06000C0A08000C0A0A000C0A0C000C0A0E000C0C00000C0C02000C0C04000C0C06000
310
C0C08000C0C0A000F0FBFF00A4A0A000808080000000FF0000FF000000FFFF00FF000000FF00FF00FFFF0000FFFFFF00494949494949494949494949494949494949494949494949494949494949494949494949FEFEFEFEFEFEFEFEFEFEFEFEFEFEFEFEFEFEFEFEFEFEFEFE4949494949494949FE49FE4949494949494949
310
494949494949494949494949FE4949494949494949FE49FEFEFEFEFEFEFEFEFEFEFEFEFEFEFEFEFEFEFEFEFEFE4949494949494949FEFEFEFEFEFEFEFE494949494949494949494949494949FE4949494949494949FEFEFE49494949FE494949494949494949494949494949FE4949494949494949FEFEFE49494949FE4949
310
49494949494949494949494949FE4949494949494949FE49FEFEFEFEFEFE494949494949494949494949494949FE4949494949494949FE49FE4949494949494949494949494949494949494949FE4949494949494949FE49FEFEFEFEFEFEFEFEFEFEFEFEFEFEFEFEFEFEFEFEFEFE4949494949494949FE49FE494949494949
310
49FEFEFEFEFEFEFEFEFEFEFEFEFEFE4949494949494949FE49FE49494949494949FE494949494949494949494949494949494949494949FE49FE49494949494949FE494949494949494949494949494949494949494949FE49FE49494949494949FE494949494949494949494949494949494949494949FE49FE4949494949
310
4949FE494949494949494949494949494949494949494949FE49FE49494949494949FE494949494949494949494949494949494949494949FE49FE49494949494949FE494949494949494949494949494949494949494949FE49FE49494949494949FE494949494949494949494949494949494949494949FE49FE49494949
310
494949FE494949494949494949494949494949494949494949FE49FE49494949494949FE494949494949494949494949494949494949494949FE49FE49494949494949FE494949494949494949494949494949494949494949FE49FE49494949494949FEFEFEFEFEFEFEFEFEFEFEFEFEFE4949494949494949FE49FEFEFEFE
310
FEFEFEFEFEFEFEFEFEFEFEFEFEFEFEFEFEFE4949494949494949FE49FE4949494949494949494949494949494949494949FE4949494949494949FE49FEFEFEFEFEFE494949494949494949494949494949FE4949494949494949FEFEFE49494949FE494949494949494949494949494949FE4949494949494949FEFEFE4949
310
4949FE494949494949494949494949494949FE4949494949494949FEFEFEFEFEFEFEFE494949494949494949494949494949FE4949494949494949FE49FEFEFEFEFEFEFEFEFEFEFEFEFEFEFEFEFEFEFEFEFEFE4949494949494949FE49FE4949494949494949494949494949494949494949FE4949494949494949FEFEFEFE
310
FEFEFEFEFEFEFEFEFEFEFEFEFEFEFEFEFEFEFEFE494949494949494949494949494949494949494949494949494949494949494949494949
 70
     0
280
     1
281
     0
  0
BLOCK_RECORD
  5
3FE
330
1
100
AcDbSymbolTableRecord
100
AcDbBlockTableRecord
  2
3
340
0
310
2800000020000000200000000100080000000000000400000000000000000000000000000000000000000000000080000080000000808000800000008000800080800000C0C0C000C0DCC000F0CAA6000020400000206000002080000020A0000020C0000020E00000400000004020000040400000406000004080000040A0
310
000040C0000040E00000600000006020000060400000606000006080000060A0000060C0000060E00000800000008020000080400000806000008080000080A0000080C0000080E00000A0000000A0200000A0400000A0600000A0800000A0A00000A0C00000A0E00000C0000000C0200000C0400000C0600000C0800000C0
310
A00000C0C00000C0E00000E0000000E0200000E0400000E0600000E0800000E0A00000E0C00000E0E00040000000400020004000400040006000400080004000A0004000C0004000E00040200000402020004020400040206000402080004020A0004020C0004020E000404000004040200040404000404060004040800040
310
40A0004040C0004040E00040600000406020004060400040606000406080004060A0004060C0004060E00040800000408020004080400040806000408080004080A0004080C0004080E00040A0000040A0200040A0400040A0600040A0800040A0A00040A0C00040A0E00040C0000040C0200040C0400040C0600040C08000
310
40C0A00040C0C00040C0E00040E0000040E0200040E0400040E0600040E0800040E0A00040E0C00040E0E00080000000800020008000400080006000800080008000A0008000C0008000E00080200000802020008020400080206000802080008020A0008020C0008020E00080400000804020008040400080406000804080
310
008040A0008040C0008040E00080600000806020008060400080606000806080008060A0008060C0008060E00080800000808020008080400080806000808080008080A0008080C0008080E00080A0000080A0200080A0400080A0600080A0800080A0A00080A0C00080A0E00080C0000080C0200080C0400080C0600080C0
310
800080C0A00080C0C00080C0E00080E0000080E0200080E0400080E0600080E0800080E0A00080E0C00080E0E000C0000000C0002000C0004000C0006000C0008000C000A000C000C000C000E000C0200000C0202000C0204000C0206000C0208000C020A000C020C000C020E000C0400000C0402000C0404000C0406000C0
310
408000C040A000C040C000C040E000C0600000C0602000C0604000C0606000C0608000C060A000C060C000C060E000C0800000C0802000C0804000C0806000C0808000C080A000C080C000C080E000C0A00000C0A02000C0A04000C0A06000C0A08000C0A0A000C0A0C000C0A0E000C0C00000C0C02000C0C04000C0C06000
310
C0C08000C0C0A000F0FBFF00A4A0A000808080000000FF0000FF000000FFFF00FF000000FF00FF00FFFF0000FFFFFF0049494949494949494949494949494949494949494949494949494949494949494949494949494949494949494949494949494949494949494949494949494949494949494949494949494949494949
310
49494949494949494949494949494949494949494949494949494949494949494949494949494949494949494949494949494949494949494949494949494949494949494949494949494949494949494949494949494949494949494949494949494949494949494949494949494949494949494949494949494949494949
310
4949494949494949494949494949494949494949494949494949494949494949494949494949494949494949494949494949494949494949494949494949494949494949494949494949494949494949494949494949FEFEFEFEFEFEFEFEFEFE49494949FEFEFEFEFEFEFEFEFEFE49494949494949FE49FE49FEFEFEFEFE49
310
FEFE4949FEFE49FEFEFEFEFE49FE49FE4949494949FE49FE4949FE4949FE49FEFEFEFEFEFEFEFE49FE4949FE4949FE49FE49494949FEFE494949FE4949FE494949FE4949FE494949FE4949FE494949FEFE49494949FE49494949FE4949FE49494949FEFEFE494949FE4949FE49494949FE494949FEFEFEFEFEFEFEFEFEFEFE
310
FEFEFEFEFEFEFEFEFEFEFEFEFEFEFEFEFEFEFE494949FEFE494949FEFEFEFE494949FEFEFEFE494949FEFEFEFE494949FEFE49494949FEFE494949FEFEFEFE494949FEFEFEFE494949FEFEFEFE494949FEFE494949FEFEFEFEFEFEFEFEFEFEFEFEFEFEFEFEFEFEFEFEFEFEFEFEFEFEFEFEFEFE494949FE49494949FE4949FE
310
49494949FEFEFE494949FE4949FE49494949FE49494949FEFE494949FE4949FE494949FE4949FE494949FE4949FE494949FEFE49494949FE49FE4949FE4949FE49FEFEFEFEFEFEFEFE49FE4949FE4949FE49FE4949494949FE49FE49FEFEFEFEFE49FEFE4949FEFE49FEFEFEFEFE49FE49FE49494949494949FEFEFEFEFEFE
310
FEFEFEFE49494949FEFEFEFEFEFEFEFEFEFE49494949494949494949494949494949494949494949494949494949494949494949494949494949494949494949494949494949494949494949494949494949494949494949494949494949494949494949494949494949494949494949494949494949494949494949494949
310
49494949494949494949494949494949494949494949494949494949494949494949494949494949494949494949494949494949494949494949494949494949494949494949494949494949494949494949494949494949494949494949494949494949494949494949494949494949494949494949494949494949494949
310
4949494949494949494949494949494949494949494949494949494949494949494949494949494949494949494949494949494949494949
102
{BLKREFS
331
49B
102
}
 70
     0
280
     1
281
     0
  0
BLOCK_RECORD
  5
4C5
330
1
100
AcDbSymbolTableRecord
100
AcDbBlockTableRecord
  2
*D12
340
0
 70
     0
280
     1
281
     0
  0
BLOCK_RECORD
  5
54C
330
1
100
AcDbSymbolTableRecord
100
AcDbBlockTableRecord
  2
*D13
340
0
 70
     0
280
     1
281
     0
  0
BLOCK_RECORD
  5
5C0
330
1
100
AcDbSymbolTableRecord
100
AcDbBlockTableRecord
  2
*D14
340
0
 70
     0
280
     1
281
     0
  0
BLOCK_RECORD
  5
708
330
1
100
AcDbSymbolTableRecord
100
AcDbBlockTableRecord
  2
*D16
340
0
 70
     0
280
     1
281
     0
  0
ENDTAB
  0
ENDSEC
  0
SECTION
  2
BLOCKS
  0
BLOCK
  5
D
330
A
100
AcDbEntity
  8
0
100
AcDbBlockBegin
  2
*MODEL_SPACE
 70
     0
 10
0.0
 20
0.0
 30
0.0
  3
*MODEL_SPACE
  1

  0
ENDBLK
  5
E
330
A
100
AcDbEntity
  8
0
100
AcDbBlockEnd
  0
BLOCK
  5
F
330
B
100
AcDbEntity
 67
     1
  8
0
100
AcDbBlockBegin
  2
*PAPER_SPACE
 70
     0
 10
0.0
 20
0.0
 30
0.0
  3
*PAPER_SPACE
  1

  0
ENDBLK
  5
10
330
B
100
AcDbEntity
 67
     1
  8
0
100
AcDbBlockEnd
  0
BLOCK
  5
2F
330
27
100
AcDbEntity
  8
0
100
AcDbBlockBegin
  2
_EX_NORM
 70
     0
 10
0.0
 20
0.0
 30
0.0
  3
_EX_NORM
  1

  0
LINE
  5
30
330
27
100
AcDbEntity
  8
0
  6
Continuous
 62
     0
100
AcDbLine
 10
0.0
 20
0.0
 30
0.0
 11
-1.0
 21
0.0
 31
0.0
  0
LINE
  5
31
330
27
100
AcDbEntity
  8
0
  6
Continuous
 62
     0
100
AcDbLine
 10
0.0
 20
0.0
 30
0.0
 11
-0.9607689219999999
 21
0.277350098
 31
0.0
  0
LINE
  5
32
330
27
100
AcDbEntity
  8
0
  6
Continuous
 62
     0
100
AcDbLine
 10
0.0
 20
0.0
 30
0.0
 11
-0.9607689219999999
 21
-0.277350098
 31
0.0
  0
ENDBLK
  5
33
330
27
100
AcDbEntity
  8
0
100
AcDbBlockEnd
  0
BLOCK
  5
34
330
28
100
AcDbEntity
  8
0
100
AcDbBlockBegin
  2
_EX_BNORM
 70
     0
 10
0.0
 20
0.0
 30
0.0
  3
_EX_BNORM
  1

  0
LINE
  5
35
330
28
100
AcDbEntity
  8
0
  6
Continuous
 62
     0
100
AcDbLine
 10
0.0
 20
0.0
 30
0.0
 11
-1.0
 21
0.0
 31
0.0
  0
LINE
  5
36
330
28
100
AcDbEntity
  8
0
  6
Continuous
 62
     0
100
AcDbLine
 10
0.0
 20
0.0
 30
0.0
 11
-0.9607689219999999
 21
0.277350098
 31
0.0
  0
LINE
  5
37
330
28
100
AcDbEntity
  8
0
  6
Continuous
 62
     0
100
AcDbLine
 10
0.0
 20
0.0
 30
0.0
 11
-0.9607689219999999
 21
-0.277350098
 31
0.0
  0
LINE
  5
38
330
28
100
AcDbEntity
  8
0
  6
Continuous
 62
     0
100
AcDbLine
 10
0.0
 20
0.0
 30
0.0
 11
-0.9607689219999999
 21
0.138767504
 31
0.0
  0
LINE
  5
39
330
28
100
AcDbEntity
  8
0
  6
Continuous
 62
     0
100
AcDbLine
 10
0.0
 20
0.0
 30
0.0
 11
-0.9607689219999999
 21
-0.138767504
 31
0.0
  0
LINE
  5
3A
330
28
100
AcDbEntity
  8
0
  6
Continuous
 62
     0
100
AcDbLine
 10
-0.9607689219999999
 20
0.277350098
 30
0.0
 11
-0.9607689219999999
 21
-0.277350098
 31
0.0
  0
ENDBLK
  5
3B
330
28
100
AcDbEntity
  8
0
100
AcDbBlockEnd
  0
BLOCK
  5
3C
330
29
100
AcDbEntity
  8
0
100
AcDbBlockBegin
  2
_EX_BCIR
 70
     0
 10
0.0
 20
0.0
 30
0.0
  3
_EX_BCIR
  1

  0
LINE
  5
3D
330
29
100
AcDbEntity
  8
0
  6
Continuous
 62
     0
100
AcDbLine
 10
0.0
 20
0.0
 30
0.0
 11
-1.0
 21
0.0
 31
0.0
  0
CIRCLE
  5
3E
330
29
100
AcDbEntity
  8
0
  6
Continuous
 62
     0
100
AcDbCircle
 10
0.0
 20
0.0
 30
0.0
 40
0.5
  0
CIRCLE
  5
3F
330
29
100
AcDbEntity
  8
0
  6
Continuous
 62
     0
100
AcDbCircle
 10
0.0
 20
0.0
 30
0.0
 40
0.25
  0
ENDBLK
  5
40
330
29
100
AcDbEntity
  8
0
100
AcDbBlockEnd
  0
BLOCK
  5
41
330
2A
100
AcDbEntity
  8
0
100
AcDbBlockBegin
  2
_EX_RCIVIL
 70
     0
 10
0.0
 20
0.0
 30
0.0
  3
_EX_RCIVIL
  1

  0
LINE
  5
42
330
2A
100
AcDbEntity
  8
0
  6
Continuous
 62
     0
100
AcDbLine
 10
0.0
 20
0.0
 30
0.0
 11
-1.0
 21
0.0
 31
0.0
  0
LINE
  5
43
330
2A
100
AcDbEntity
  8
0
  6
Continuous
 62
     0
100
AcDbLine
 10
-1.0
 20
-0.25
 30
0.0
 11
0.0
 21
-0.25
 31
0.0
  0
LINE
  5
44
330
2A
100
AcDbEntity
  8
0
  6
Continuous
 62
     0
100
AcDbLine
 10
-1.0
 20
-0.125
 30
0.0
 11
0.0
 21
-0.125
 31
0.0
  0
ENDBLK
  5
45
330
2A
100
AcDbEntity
  8
0
100
AcDbBlockEnd
  0
BLOCK
  5
46
330
2B
100
AcDbEntity
  8
0
100
AcDbBlockBegin
  2
_EX_SLANT
 70
     0
 10
0.0
 20
0.0
 30
0.0
  3
_EX_SLANT
  1

  0
LINE
  5
47
330
2B
100
AcDbEntity
  8
0
  6
Continuous
 62
     0
100
AcDbLine
 10
0.0
 20
0.0
 30
0.0
 11
-1.0
 21
0.0
 31
0.0
  0
LINE
  5
48
330
2B
100
AcDbEntity
  8
0
  6
Continuous
 62
     0
100
AcDbLine
 10
0.7071067810000001
 20
0.7071067810000001
 30
0.0
 11
-0.7071067810000001
 21
-0.7071067810000001
 31
0.0
  0
ENDBLK
  5
49
330
2B
100
AcDbEntity
  8
0
100
AcDbBlockEnd
  0
BLOCK
  5
4A
330
2C
100
AcDbEntity
  8
0
100
AcDbBlockBegin
  2
_EX_NONE
 70
     0
 10
0.0
 20
0.0
 30
0.0
  3
_EX_NONE
  1

  0
LINE
  5
4B
330
2C
100
AcDbEntity
  8
0
  6
Continuous
 62
     0
100
AcDbLine
 10
0.0
 20
0.0
 30
0.0
 11
-1.0
 21
0.0
 31
0.0
  0
ENDBLK
  5
4C
330
2C
100
AcDbEntity
  8
0
100
AcDbBlockEnd
  0
BLOCK
  5
4D
330
2D
100
AcDbEntity
  8
0
100
AcDbBlockBegin
  2
_EX_CIVIL
 70
     0
 10
0.0
 20
0.0
 30
0.0
  3
_EX_CIVIL
  1

  0
LINE
  5
4E
330
2D
100
AcDbEntity
  8
0
  6
Continuous
 62
     0
100
AcDbLine
 10
0.0
 20
0.0
 30
0.0
 11
-1.0
 21
0.0
 31
0.0
  0
LINE
  5
4F
330
2D
100
AcDbEntity
  8
0
  6
Continuous
 62
     0
100
AcDbLine
 10
-1.0
 20
0.25
 30
0.0
 11
0.0
 21
0.25
 31
0.0
  0
LINE
  5
50
330
2D
100
AcDbEntity
  8
0
  6
Continuous
 62
     0
100
AcDbLine
 10
-1.0
 20
0.125
 30
0.0
 11
0.0
 21
0.125
 31
0.0
  0
ENDBLK
  5
51
330
2D
100
AcDbEntity
  8
0
100
AcDbBlockEnd
  0
BLOCK
  5
52
330
2E
100
AcDbEntity
  8
0
100
AcDbBlockBegin
  2
_EX_WCIR
 70
     0
 10
0.0
 20
0.0
 30
0.0
  3
_EX_WCIR
  1

  0
LINE
  5
53
330
2E
100
AcDbEntity
  8
0
  6
Continuous
 62
     0
100
AcDbLine
 10
0.0
 20
0.0
 30
0.0
 11
-1.0
 21
0.0
 31
0.0
  0
CIRCLE
  5
54
330
2E
100
AcDbEntity
  8
0
  6
Continuous
 62
     0
100
AcDbCircle
 10
0.0
 20
0.0
 30
0.0
 40
0.5
  0
ENDBLK
  5
55
330
2E
100
AcDbEntity
  8
0
100
AcDbBlockEnd
  0
BLOCK
  5
232
330
22E
100
AcDbEntity
  8
0
100
AcDbBlockBegin
  2
_Open30
 70
     0
 10
0.0
 20
0.0
 30
0.0
  3
_Open30
  1

  0
LINE
  5
22F
330
22E
100
AcDbEntity
  8
0
  6
ByBlock
 62
     0
370
    -2
100
AcDbLine
 10
-1.0
 20
0.26794919
 30
0.0
 11
0.0
 21
0.0
 31
0.0
  0
LINE
  5
230
330
22E
100
AcDbEntity
  8
0
  6
ByBlock
 62
     0
370
    -2
100
AcDbLine
 10
0.0
 20
0.0
 30
0.0
 11
-1.0
 21
-0.26794919
 31
0.0
  0
LINE
  5
231
330
22E
100
AcDbEntity
  8
0
  6
ByBlock
 62
     0
370
    -2
100
AcDbLine
 10
0.0
 20
0.0
 30
0.0
 11
-1.0
 21
0.0
 31
0.0
  0
ENDBLK
  5
233
330
22E
100
AcDbEntity
  8
0
100
AcDbBlockEnd
  0
BLOCK
  5
38C
330
38B
100
AcDbEntity
  8
0
100
AcDbBlockBegin
  2
1
 70
     0
 10
0.0
 20
0.0
 30
0.0
  3
1
  1

  0
LINE
  5
38E
330
38B
100
AcDbEntity
  8
製肘
  6
Continuous
 62
     4
100
AcDbLine
 10
-79.82974901601915
 20
21.66585874393753
 30
0.0
 11
-103.0597490160637
 21
21.66585874393753
 31
0.0
  0
LINE
  5
38F
330
38B
100
AcDbEntity
  8
製肘
  6
Continuous
 62
     4
100
AcDbLine
 10
-115.1977610011563
 20
41.90110723560713
 30
0.0
 11
-115.3224368257622
 21
38.33085874393754
 31
0.0
  0
ARC
  5
390
330
38B
100
AcDbEntity
  8
製肘
  6
Continuous
 62
     4
100
AcDbCircle
 10
-114.1883762658669
 20
41.86585874393753
 30
0.0
 40
1.01
100
AcDbArc
 50
90.0
 51
177.9999999999965
  0
LINE
  5
391
330
38B
100
AcDbEntity
  8
製肘
  6
Continuous
 62
     4
100
AcDbLine
 10
-113.4186956158005
 20
41.90110723560713
 30
0.0
 11
-113.5433714404066
 21
38.33085874393754
 31
0.0
  0
ARC
  5
392
330
38B
100
AcDbEntity
  8
製肘
  6
Continuous
 62
     4
100
AcDbCircle
 10
-112.4093108805111
 20
41.86585874393753
 30
0.0
 40
1.01
100
AcDbArc
 50
90.0
 51
177.9999999999965
  0
LINE
  5
393
330
38B
100
AcDbEntity
  8
製肘
  6
Continuous
 62
     4
100
AcDbLine
 10
-110.9174974121604
 20
41.90110723560713
 30
0.0
 11
-111.0421732367665
 21
38.33085874393754
 31
0.0
  0
ARC
  5
394
330
38B
100
AcDbEntity
  8
製肘
  6
Continuous
 62
     4
100
AcDbCircle
 10
-109.9081126768712
 20
41.86585874393753
 30
0.0
 40
1.01
100
AcDbArc
 50
90.0
 51
177.9999999999965
  0
LINE
  5
395
330
38B
100
AcDbEntity
  8
製肘
  6
Continuous
 62
     4
100
AcDbLine
 10
-67.69173703092656
 20
41.90110723560713
 30
0.0
 11
-67.56706120632043
 21
38.33085874393754
 31
0.0
  0
ARC
  5
396
330
38B
100
AcDbEntity
  8
製肘
  6
Continuous
 62
     4
100
AcDbCircle
 10
-68.70112176621592
 20
41.86585874393753
 30
0.0
 40
1.01
100
AcDbArc
 50
2.000000000003498
 51
90.0
  0
LINE
  5
397
330
38B
100
AcDbEntity
  8
製肘
  6
Continuous
 62
     4
100
AcDbLine
 10
-69.47080241628237
 20
41.90110723560713
 30
0.0
 11
-69.34612659167624
 21
38.33085874393754
 31
0.0
  0
ARC
  5
398
330
38B
100
AcDbEntity
  8
製肘
  6
Continuous
 62
     4
100
AcDbCircle
 10
-70.48018715157173
 20
41.86585874393753
 30
0.0
 40
1.01
100
AcDbArc
 50
2.000000000003498
 51
90.0
  0
LINE
  5
399
330
38B
100
AcDbEntity
  8
製肘
  6
Continuous
 62
     4
100
AcDbLine
 10
-71.97200061992248
 20
41.90110723560713
 30
0.0
 11
-71.84732479531636
 21
38.33085874393754
 31
0.0
  0
ARC
  5
39A
330
38B
100
AcDbEntity
  8
製肘
  6
Continuous
 62
     4
100
AcDbCircle
 10
-72.98138535521161
 20
41.86585874393753
 30
0.0
 40
1.01
100
AcDbArc
 50
2.000000000003498
 51
90.0
  0
LINE
  5
39B
330
38B
100
AcDbEntity
  8
製肘
  6
Continuous
 62
     4
100
AcDbLine
 10
-40.53574901606362
 20
21.66585874393753
 30
0.0
 11
-17.30574901601903
 21
21.66585874393753
 31
0.0
  0
LINE
  5
39C
330
38B
100
AcDbEntity
  8
製肘
  6
Continuous
 62
     4
100
AcDbLine
 10
-5.167737030926446
 20
41.90110723560713
 30
0.0
 11
-5.043061206320317
 21
38.33085874393754
 31
0.0
  0
ARC
  5
39D
330
38B
100
AcDbEntity
  8
製肘
  6
Continuous
 62
     4
100
AcDbCircle
 10
-6.177121766215805
 20
41.86585874393753
 30
0.0
 40
1.01
100
AcDbArc
 50
2.000000000003498
 51
90.0
  0
LINE
  5
39E
330
38B
100
AcDbEntity
  8
製肘
  6
Continuous
 62
     4
100
AcDbLine
 10
-6.946802416282253
 20
41.90110723560713
 30
0.0
 11
-6.822126591676124
 21
38.33085874393754
 31
0.0
  0
ARC
  5
39F
330
38B
100
AcDbEntity
  8
製肘
  6
Continuous
 62
     4
100
AcDbCircle
 10
-7.956187151571612
 20
41.86585874393753
 30
0.0
 40
1.01
100
AcDbArc
 50
2.000000000003498
 51
90.0
  0
LINE
  5
3A0
330
38B
100
AcDbEntity
  8
製肘
  6
Continuous
 62
     4
100
AcDbLine
 10
-9.448000619922368
 20
41.90110723560713
 30
0.0
 11
-9.323324795316239
 21
38.33085874393754
 31
0.0
  0
ARC
  5
3A1
330
38B
100
AcDbEntity
  8
製肘
  6
Continuous
 62
     4
100
AcDbCircle
 10
-10.4573853552115
 20
41.86585874393753
 30
0.0
 40
1.01
100
AcDbArc
 50
2.000000000003498
 51
90.0
  0
LINE
  5
3A2
330
38B
100
AcDbEntity
  8
製肘
  6
Continuous
 62
     4
100
AcDbLine
 10
-52.67376100115621
 20
41.90110723560713
 30
0.0
 11
-52.79843682576234
 21
38.33085874393754
 31
0.0
  0
ARC
  5
3A3
330
38B
100
AcDbEntity
  8
製肘
  6
Continuous
 62
     4
100
AcDbCircle
 10
-51.66437626586684
 20
41.86585874393753
 30
0.0
 40
1.01
100
AcDbArc
 50
90.0
 51
177.9999999999965
  0
LINE
  5
3A4
330
38B
100
AcDbEntity
  8
製肘
  6
Continuous
 62
     4
100
AcDbLine
 10
-50.8946956158004
 20
41.90110723560713
 30
0.0
 11
-51.01937144040653
 21
38.33085874393754
 31
0.0
  0
ARC
  5
3A5
330
38B
100
AcDbEntity
  8
製肘
  6
Continuous
 62
     4
100
AcDbCircle
 10
-49.88531088051104
 20
41.86585874393753
 30
0.0
 40
1.01
100
AcDbArc
 50
90.0
 51
177.9999999999965
  0
LINE
  5
3A6
330
38B
100
AcDbEntity
  8
製肘
  6
Continuous
 62
     4
100
AcDbLine
 10
-48.39349741216029
 20
41.90110723560713
 30
0.0
 11
-48.51817323676641
 21
38.33085874393754
 31
0.0
  0
ARC
  5
3A7
330
38B
100
AcDbEntity
  8
製肘
  6
Continuous
 62
     4
100
AcDbCircle
 10
-47.38411267687115
 20
41.86585874393753
 30
0.0
 40
1.01
100
AcDbArc
 50
90.0
 51
177.9999999999965
  0
LINE
  5
3A8
330
38B
100
AcDbEntity
  8
製肘
  6
Continuous
 62
     4
100
AcDbLine
 10
-109.6562841655041
 20
27.72585874393741
 30
0.0
 11
-109.6562841655041
 21
38.33085874393743
 31
0.0
  0
LINE
  5
3A9
330
38B
100
AcDbEntity
  8
製肘
  6
Continuous
 62
     4
100
AcDbLine
 10
-115.1502370909934
 20
27.72585874393741
 30
0.0
 11
-115.3353480545568
 21
38.33085874393743
 31
0.0
  0
LINE
  5
3AA
330
38B
100
AcDbEntity
  8
製肘
  6
Continuous
 62
     4
100
AcDbLine
 10
-109.6562841655041
 20
27.72585874393741
 30
0.0
 11
-115.1502370909934
 21
27.72585874393741
 31
0.0
  0
LINE
  5
3AB
330
38B
100
AcDbEntity
  8
製肘
  6
Continuous
 62
     4
100
AcDbLine
 10
-73.2332138665788
 20
27.72585874393741
 30
0.0
 11
-73.2332138665788
 21
38.33085874393743
 31
0.0
  0
LINE
  5
3AC
330
38B
100
AcDbEntity
  8
製肘
  6
Continuous
 62
     4
100
AcDbLine
 10
-67.73926094108947
 20
27.72585874393741
 30
0.0
 11
-67.55414997752609
 21
38.33085874393743
 31
0.0
  0
LINE
  5
3AD
330
38B
100
AcDbEntity
  8
製肘
  6
Continuous
 62
     4
100
AcDbLine
 10
-73.2332138665788
 20
27.72585874393741
 30
0.0
 11
-67.73926094108947
 21
27.72585874393741
 31
0.0
  0
LINE
  5
3AE
330
38B
100
AcDbEntity
  8
製肘
  6
Continuous
 62
     4
100
AcDbLine
 10
-52.62623709099329
 20
27.72585874393741
 30
0.0
 11
-52.81134805455668
 21
38.33085874393743
 31
0.0
  0
LINE
  5
3AF
330
38B
100
AcDbEntity
  8
製肘
  6
Continuous
 62
     4
100
AcDbLine
 10
-47.13228416550395
 20
27.72585874393741
 30
0.0
 11
-47.13228416550395
 21
38.33085874393743
 31
0.0
  0
LINE
  5
3B0
330
38B
100
AcDbEntity
  8
製肘
  6
Continuous
 62
     4
100
AcDbLine
 10
-47.13228416550395
 20
27.72585874393741
 30
0.0
 11
-52.62623709099329
 21
27.72585874393741
 31
0.0
  0
LINE
  5
3B1
330
38B
100
AcDbEntity
  8
製肘
  6
Continuous
 62
     4
100
AcDbLine
 10
-10.70921386657869
 20
27.72585874393741
 30
0.0
 11
-10.70921386657869
 21
38.33085874393743
 31
0.0
  0
LINE
  5
3B2
330
38B
100
AcDbEntity
  8
製肘
  6
Continuous
 62
     4
100
AcDbLine
 10
-10.70921386657869
 20
27.72585874393741
 30
0.0
 11
-5.215260941089354
 21
27.72585874393741
 31
0.0
  0
LINE
  5
3B3
330
38B
100
AcDbEntity
  8
製肘
  6
Continuous
 62
     4
100
AcDbLine
 10
-5.215260941089354
 20
27.72585874393741
 30
0.0
 11
-5.030149977525979
 21
38.33085874393743
 31
0.0
  0
LINE
  5
3B4
330
38B
100
AcDbEntity
  8
製肘
  6
Continuous
 62
     4
100
AcDbLine
 10
-62.19000489067139
 20
32.27085874393753
 30
0.0
 11
-59.93274901604127
 21
32.27085874393753
 31
0.0
  0
LINE
  5
3B5
330
38B
100
AcDbEntity
  8
製肘
  6
Continuous
 62
     4
100
AcDbLine
 10
-60.43274901604127
 20
32.27085874393753
 30
0.0
 11
-58.17549314141138
 21
32.27085874393753
 31
0.0
  0
LINE
  5
3B6
330
38B
100
AcDbEntity
  8
製肘
  6
Continuous
 62
     4
100
AcDbLine
 10
-116.5845307109541
 20
38.33085874393754
 30
0.0
 11
-116.5845307109541
 21
-4.594141256062471
 31
0.0
  0
LINE
  5
3B7
330
38B
100
AcDbEntity
  8
製肘
  6
Continuous
 62
     4
100
AcDbLine
 10
-103.1743306085943
 20
-4.594141256062471
 30
0.0
 11
-103.0597490160428
 21
21.6658587439374
 31
0.0
  0
LINE
  5
3B8
330
38B
100
AcDbEntity
  8
製肘
  6
Continuous
 62
     4
100
AcDbLine
 10
-79.71516742348853
 20
-4.594141256062471
 30
0.0
 11
-79.82974901604007
 21
21.6658587439374
 31
0.0
  0
LINE
  5
3B9
330
38B
100
AcDbEntity
  8
製肘
  6
Continuous
 62
     4
100
AcDbLine
 10
-62.35085981867655
 20
-4.594141256062471
 30
0.0
 11
-62.16356298469804
 21
38.33085874393754
 31
0.0
  0
LINE
  5
3BA
330
38B
100
AcDbEntity
  8
製肘
  6
Continuous
 62
     4
100
AcDbLine
 10
-58.01463821340644
 20
-4.594141256062471
 30
0.0
 11
-58.20193504738472
 21
38.33085874393754
 31
0.0
  0
LINE
  5
3BB
330
38B
100
AcDbEntity
  8
製肘
  6
Continuous
 62
     4
100
AcDbLine
 10
-40.65033060859422
 20
-4.594141256062471
 30
0.0
 11
-40.5357490160427
 21
21.6658587439374
 31
0.0
  0
LINE
  5
3BC
330
38B
100
AcDbEntity
  8
製肘
  6
Continuous
 62
     4
100
AcDbLine
 10
-17.19116742348842
 20
-4.594141256062471
 30
0.0
 11
-17.30574901603995
 21
21.6658587439374
 31
0.0
  0
LINE
  5
3BD
330
38B
100
AcDbEntity
  8
製肘
  6
Continuous
 62
     4
100
AcDbLine
 10
-3.780967321128628
 20
38.33085874393754
 30
0.0
 11
-3.780967321128628
 21
-4.594141256062471
 31
0.0
  0
LINE
  5
3BE
330
38B
100
AcDbEntity
  8
製肘
  6
Continuous
 62
     4
100
AcDbLine
 10
-58.01463821340644
 20
-4.594141256062471
 30
0.0
 11
-40.65033060859422
 21
-4.594141256062471
 31
0.0
  0
LINE
  5
3BF
330
38B
100
AcDbEntity
  8
製肘
  6
Continuous
 62
     4
100
AcDbLine
 10
-79.71516742348853
 20
-4.594141256062471
 30
0.0
 11
-62.35085981867655
 21
-4.594141256062471
 31
0.0
  0
LINE
  5
3C0
330
38B
100
AcDbEntity
  8
製肘
  6
Continuous
 62
     4
100
AcDbLine
 10
-120.408073191435
 20
41.90110723560713
 30
0.0
 11
-120.5327490160412
 21
38.33085874393754
 31
0.0
  0
ARC
  5
3C1
330
38B
100
AcDbEntity
  8
製肘
  6
Continuous
 62
     4
100
AcDbCircle
 10
-119.3986884561457
 20
41.86585874393753
 30
0.0
 40
1.01
100
AcDbArc
 50
90.0
 51
177.9999999999965
  0
LINE
  5
3C2
330
38B
100
AcDbEntity
  8
製肘
  6
Continuous
 62
     4
100
AcDbLine
 10
-120.3454521820626
 20
-4.594141256062471
 30
0.0
 11
-120.5327490160412
 21
38.33085874393743
 31
0.0
  0
LINE
  5
3C3
330
38B
100
AcDbEntity
  8
製肘
  6
Continuous
 62
     4
100
AcDbLine
 10
0.0425751593522819
 20
41.90110723560713
 30
0.0
 11
0.1672509839584109
 21
38.33085874393754
 31
0.0
  0
ARC
  5
3C4
330
38B
100
AcDbEntity
  8
製肘
  6
Continuous
 62
     4
100
AcDbCircle
 10
-0.9668095759370771
 20
41.86585874393753
 30
0.0
 40
1.01
100
AcDbArc
 50
2.000000000003498
 51
90.0
  0
LINE
  5
3C5
330
38B
100
AcDbEntity
  8
製肘
  6
Continuous
 62
     4
100
AcDbLine
 10
-0.0200458500200966
 20
-4.594141256062471
 30
0.0
 11
0.1672509839584109
 21
38.33085874393743
 31
0.0
  0
LINE
  5
3C6
330
38B
100
AcDbEntity
  8
製肘
  6
Continuous
 62
     4
100
AcDbLine
 10
-120.3454521820626
 20
-4.594141256062471
 30
0.0
 11
-103.1743306085943
 21
-4.594141256062471
 31
0.0
  0
LINE
  5
3C7
330
38B
100
AcDbEntity
  8
製肘
  6
Continuous
 62
     4
100
AcDbLine
 10
-119.3986884561464
 20
42.87585874393752
 30
0.0
 11
-59.93274901604173
 21
42.87585874393752
 31
0.0
  0
LINE
  5
3C8
330
38B
100
AcDbEntity
  8
製肘
  6
Continuous
 62
     4
100
AcDbLine
 10
-60.43274901604172
 20
42.87585874393752
 30
0.0
 11
-0.9668095759366224
 21
42.87585874393752
 31
0.0
  0
LINE
  5
3C9
330
38B
100
AcDbEntity
  8
製肘
  6
Continuous
 62
     4
100
AcDbLine
 10
-120.5327490160412
 20
38.33085874393754
 30
0.0
 11
-59.93274901604127
 21
38.33085874393754
 31
0.0
  0
LINE
  5
3CA
330
38B
100
AcDbEntity
  8
製肘
  6
Continuous
 62
     4
100
AcDbLine
 10
-60.43274901604127
 20
38.33085874393754
 30
0.0
 11
0.1672509839584109
 21
38.33085874393754
 31
0.0
  0
LINE
  5
3CB
330
38B
100
AcDbEntity
  8
製肘
  6
Continuous
 62
     4
100
AcDbLine
 10
-17.19116742348842
 20
-4.594141256062471
 30
0.0
 11
-0.0200458500200966
 21
-4.594141256062471
 31
0.0
  0
LINE
  5
3CC
330
38B
100
AcDbEntity
  8
製肘
  6
Continuous
 62
     4
100
AcDbLine
 10
-105.3974521820619
 20
-4.594141256062471
 30
0.0
 11
-105.5847490160399
 21
38.33085874393845
 31
0.0
  0
LINE
  5
3CD
330
38B
100
AcDbEntity
  8
製肘
  6
Continuous
 62
     4
100
AcDbLine
 10
-77.49204585002098
 20
-4.594141256062471
 30
0.0
 11
-77.30474901604271
 21
38.33085874393845
 31
0.0
  0
LINE
  5
3CE
330
38B
100
AcDbEntity
  8
製肘
  6
Continuous
 62
     4
100
AcDbLine
 10
-42.87345218206178
 20
-4.594141256062471
 30
0.0
 11
-43.06074901604006
 21
38.33085874393845
 31
0.0
  0
LINE
  5
3CF
330
38B
100
AcDbEntity
  8
製肘
  6
Continuous
 62
     4
100
AcDbLine
 10
-14.9680458500211
 20
-4.594141256062471
 30
0.0
 11
-14.78074901604282
 21
38.33085874393845
 31
0.0
  0
ENDBLK
  5
38D
330
38B
100
AcDbEntity
  8
0
100
AcDbBlockEnd
  0
BLOCK
  5
3D8
330
3D7
100
AcDbEntity
  8
0
100
AcDbBlockBegin
  2
2
 70
     0
 10
0.0
 20
0.0
 30
0.0
  3
2
  1

  0
LINE
  5
3DA
330
3D7
100
AcDbEntity
  8
製肘
  6
Continuous
 62
     4
100
AcDbLine
 10
-58.20673119261574
 20
12.1929732379844
 30
0.0
 11
-58.20673119261574
 21
70.77297323798442
 31
0.0
  0
LINE
  5
3DB
330
3D7
100
AcDbEntity
  8
製肘
  6
Continuous
 62
     4
100
AcDbLine
 10
-41.54173119261577
 20
29.86797323796213
 30
0.0
 11
-41.54173119261577
 21
53.09797323800669
 31
0.0
  0
LINE
  5
3DC
330
3D7
100
AcDbEntity
  8
製肘
  6
Continuous
 62
     4
100
AcDbLine
 10
-61.77697968428538
 20
70.64829741337797
 30
0.0
 11
-58.20673119261574
 21
70.77297323798408
 31
0.0
  0
ARC
  5
3DD
330
3D7
100
AcDbEntity
  8
製肘
  6
Continuous
 62
     4
100
AcDbCircle
 10
-61.74173119261581
 20
69.63891267808873
 30
0.0
 40
1.01
100
AcDbArc
 50
92.00000000000365
 51
180.0
  0
LINE
  5
3DE
330
3D7
100
AcDbEntity
  8
製肘
  6
Continuous
 62
     4
100
AcDbLine
 10
-62.7517311926158
 20
13.32703379788007
 30
0.0
 11
-62.7517311926158
 21
69.63891267808873
 31
0.0
  0
LINE
  5
3DF
330
3D7
100
AcDbEntity
  8
製肘
  6
Continuous
 62
     4
100
AcDbLine
 10
-61.77697968428538
 20
12.31764906259083
 30
0.0
 11
-58.20673119261574
 21
12.19297323798476
 31
0.0
  0
ARC
  5
3E0
330
3D7
100
AcDbEntity
  8
製肘
  6
Continuous
 62
     4
100
AcDbCircle
 10
-61.74173119261581
 20
13.32703379788007
 30
0.0
 40
1.01
100
AcDbArc
 50
180.0
 51
267.9999999999964
  0
LINE
  5
3E1
330
3D7
100
AcDbEntity
  8
製肘
  6
Continuous
 62
     4
100
AcDbLine
 10
-61.77697968428538
 20
65.23598522309936
 30
0.0
 11
-58.20673119261574
 21
65.36066104770544
 31
0.0
  0
ARC
  5
3E2
330
3D7
100
AcDbEntity
  8
製肘
  6
Continuous
 62
     4
100
AcDbCircle
 10
-61.74173119261581
 20
64.22660048780997
 30
0.0
 40
1.01
100
AcDbArc
 50
92.00000000000365
 51
180.0
  0
LINE
  5
3E3
330
3D7
100
AcDbEntity
  8
製肘
  6
Continuous
 62
     4
100
AcDbLine
 10
-61.77697968428538
 20
63.45691983774338
 30
0.0
 11
-58.20673119261574
 21
63.58159566234945
 31
0.0
  0
ARC
  5
3E4
330
3D7
100
AcDbEntity
  8
製肘
  6
Continuous
 62
     4
100
AcDbCircle
 10
-61.74173119261581
 20
62.44753510245414
 30
0.0
 40
1.01
100
AcDbArc
 50
92.00000000000365
 51
180.0
  0
LINE
  5
3E5
330
3D7
100
AcDbEntity
  8
製肘
  6
Continuous
 62
     4
100
AcDbLine
 10
-61.77697968428538
 20
60.95572163410356
 30
0.0
 11
-58.20673119261574
 21
61.08039745870964
 31
0.0
  0
ARC
  5
3E6
330
3D7
100
AcDbEntity
  8
製肘
  6
Continuous
 62
     4
100
AcDbCircle
 10
-61.74173119261581
 20
59.94633689881419
 30
0.0
 40
1.01
100
AcDbArc
 50
92.00000000000365
 51
180.0
  0
LINE
  5
3E7
330
3D7
100
AcDbEntity
  8
製肘
  6
Continuous
 62
     4
100
AcDbLine
 10
-61.77697968428538
 20
17.72996125286947
 30
0.0
 11
-58.20673119261574
 21
17.60528542826338
 31
0.0
  0
ARC
  5
3E8
330
3D7
100
AcDbEntity
  8
製肘
  6
Continuous
 62
     4
100
AcDbCircle
 10
-61.74173119261581
 20
18.73934598815883
 30
0.0
 40
1.01
100
AcDbArc
 50
180.0
 51
267.9999999999964
  0
LINE
  5
3E9
330
3D7
100
AcDbEntity
  8
製肘
  6
Continuous
 62
     4
100
AcDbLine
 10
-61.77697968428538
 20
19.50902663822543
 30
0.0
 11
-58.20673119261574
 21
19.38435081361935
 31
0.0
  0
ARC
  5
3EA
330
3D7
100
AcDbEntity
  8
製肘
  6
Continuous
 62
     4
100
AcDbCircle
 10
-61.74173119261581
 20
20.51841137351468
 30
0.0
 40
1.01
100
AcDbArc
 50
180.0
 51
267.9999999999964
  0
LINE
  5
3EB
330
3D7
100
AcDbEntity
  8
製肘
  6
Continuous
 62
     4
100
AcDbLine
 10
-61.77697968428538
 20
22.0102248418652
 30
0.0
 11
-58.20673119261574
 21
21.88554901725912
 31
0.0
  0
ARC
  5
3EC
330
3D7
100
AcDbEntity
  8
製肘
  6
Continuous
 62
     4
100
AcDbCircle
 10
-61.74173119261581
 20
23.01960957715457
 30
0.0
 40
1.01
100
AcDbArc
 50
180.0
 51
267.9999999999964
  0
LINE
  5
3ED
330
3D7
100
AcDbEntity
  8
製肘
  6
Continuous
 62
     4
100
AcDbLine
 10
-47.60173119261572
 20
59.69450838744702
 30
0.0
 11
-58.20673119261574
 21
59.69450838744702
 31
0.0
  0
LINE
  5
3EE
330
3D7
100
AcDbEntity
  8
製肘
  6
Continuous
 62
     4
100
AcDbLine
 10
-47.60173119261572
 20
65.18846131293614
 30
0.0
 11
-58.20673119261574
 21
65.3735722764996
 31
0.0
  0
LINE
  5
3EF
330
3D7
100
AcDbEntity
  8
製肘
  6
Continuous
 62
     4
100
AcDbLine
 10
-47.60173119261572
 20
59.69450838744702
 30
0.0
 11
-47.60173119261572
 21
65.18846131293614
 31
0.0
  0
LINE
  5
3F0
330
3D7
100
AcDbEntity
  8
製肘
  6
Continuous
 62
     4
100
AcDbLine
 10
-47.60173119261572
 20
23.27143808852181
 30
0.0
 11
-58.20673119261574
 21
23.27143808852181
 31
0.0
  0
LINE
  5
3F1
330
3D7
100
AcDbEntity
  8
製肘
  6
Continuous
 62
     4
100
AcDbLine
 10
-47.60173119261572
 20
17.77748516303262
 30
0.0
 11
-58.20673119261574
 21
17.59237419946916
 31
0.0
  0
LINE
  5
3F2
330
3D7
100
AcDbEntity
  8
製肘
  6
Continuous
 62
     4
100
AcDbLine
 10
-47.60173119261572
 20
23.27143808852181
 30
0.0
 11
-47.60173119261572
 21
17.77748516303262
 31
0.0
  0
LINE
  5
3F3
330
3D7
100
AcDbEntity
  8
製肘
  6
Continuous
 62
     4
100
AcDbLine
 10
-15.28173119261578
 20
70.58567640400662
 30
0.0
 11
-58.20673119261574
 21
70.7729732379851
 31
0.0
  0
LINE
  5
3F4
330
3D7
100
AcDbEntity
  8
製肘
  6
Continuous
 62
     4
100
AcDbLine
 10
-15.28173119261578
 20
66.62275493288689
 30
0.0
 11
-58.20673119261574
 21
66.62275493288689
 31
0.0
  0
LINE
  5
3F5
330
3D7
100
AcDbEntity
  8
製肘
  6
Continuous
 62
     4
100
AcDbLine
 10
-15.28173119261578
 20
53.21255483055981
 30
0.0
 11
-41.54173119261577
 21
53.09797323800829
 31
0.0
  0
LINE
  5
3F6
330
3D7
100
AcDbEntity
  8
製肘
  6
Continuous
 62
     4
100
AcDbLine
 10
-15.28173119261578
 20
29.75339164540896
 30
0.0
 11
-41.54173119261577
 21
29.86797323796042
 31
0.0
  0
LINE
  5
3F7
330
3D7
100
AcDbEntity
  8
製肘
  6
Continuous
 62
     4
100
AcDbLine
 10
-15.28173119261578
 20
16.34319154308194
 30
0.0
 11
-58.20673119261574
 21
16.34319154308194
 31
0.0
  0
LINE
  5
3F8
330
3D7
100
AcDbEntity
  8
製肘
  6
Continuous
 62
     4
100
AcDbLine
 10
-15.28173119261578
 20
12.38027007196218
 30
0.0
 11
-58.20673119261574
 21
12.19297323798372
 31
0.0
  0
LINE
  5
3F9
330
3D7
100
AcDbEntity
  8
製肘
  6
Continuous
 62
     4
100
AcDbLine
 10
-15.28173119261578
 20
53.21255483055981
 30
0.0
 11
-15.28173119261578
 21
70.58567640400662
 31
0.0
  0
LINE
  5
3FA
330
3D7
100
AcDbEntity
  8
製肘
  6
Continuous
 62
     4
100
AcDbLine
 10
-15.28173119261578
 20
12.38027007196213
 30
0.0
 11
-15.28173119261578
 21
29.75339164540896
 31
0.0
  0
LINE
  5
3FB
330
3D7
100
AcDbEntity
  8
製肘
  6
Continuous
 62
     4
100
AcDbLine
 10
-15.28173119261578
 20
55.43567640400474
 30
0.0
 11
-58.20673119261664
 21
55.62297323798315
 31
0.0
  0
LINE
  5
3FC
330
3D7
100
AcDbEntity
  8
製肘
  6
Continuous
 62
     4
100
AcDbLine
 10
-15.28173119261578
 20
27.53027007196408
 30
0.0
 11
-58.20673119261664
 21
27.34297323798568
 31
0.0
  0
ENDBLK
  5
3D9
330
3D7
100
AcDbEntity
  8
0
100
AcDbBlockEnd
  0
BLOCK
  5
3FF
330
3FE
100
AcDbEntity
  8
0
100
AcDbBlockBegin
  2
3
 70
     0
 10
0.0
 20
0.0
 30
0.0
  3
3
  1

  0
CIRCLE
  5
401
330
3FE
100
AcDbEntity
  8
製肘
  6
Continuous
 62
     4
100
AcDbCircle
 10
-80.53992895309921
 20
29.29000000000002
 30
0.0
 40
2.524999999999999
  0
LINE
  5
402
330
3FE
100
AcDbEntity
  8
製肘
  6
Continuous
 62
     4
100
AcDbLine
 10
-98.5558579061983
 20
0.0
 30
0.0
 11
-62.52400000000012
 21
0.0
 31
0.0
  0
CIRCLE
  5
403
330
3FE
100
AcDbEntity
  8
製肘
  6
Continuous
 62
     4
100
AcDbCircle
 10
-18.01592895309909
 20
29.29000000000002
 30
0.0
 40
2.524999999999999
  0
LINE
  5
404
330
3FE
100
AcDbEntity
  8
製肘
  6
Continuous
 62
     4
100
AcDbLine
 10
0.0
 20
0.0
 30
0.0
 11
-36.03185790619818
 21
0.0
 31
0.0
  0
LINE
  5
405
330
3FE
100
AcDbEntity
  8
製肘
  6
Continuous
 62
     4
100
AcDbLine
 10
-99.32592895309904
 20
58.57999999999998
 30
0.0
 11
-61.75392895309937
 21
58.57999999999998
 31
0.0
  0
ARC
  5
406
330
3FE
100
AcDbEntity
  8
製肘
  6
Continuous
 62
     4
100
AcDbCircle
 10
-61.75392895309937
 20
57.56999999999999
 30
0.0
 40
1.01
100
AcDbArc
 50
14.25003269780364
 51
90.0
  0
ARC
  5
407
330
3FE
100
AcDbEntity
  8
製肘
  6
Continuous
 62
     4
100
AcDbCircle
 10
-36.80192895309892
 20
57.56999999999999
 30
0.0
 40
1.01
100
AcDbArc
 50
90.0
 51
165.7499673021963
  0
LINE
  5
408
330
3FE
100
AcDbEntity
  8
製肘
  6
Continuous
 62
     4
100
AcDbLine
 10
0.7700710469007391
 20
58.57999999999998
 30
0.0
 11
-36.80192895309892
 21
58.57999999999998
 31
0.0
  0
LINE
  5
409
330
3FE
100
AcDbEntity
  8
製肘
  6
Continuous
 62
     4
100
AcDbLine
 10
-99.32592895309904
 20
0.0
 30
0.0
 11
-61.75392895309937
 21
0.0
 31
0.0
  0
ARC
  5
40A
330
3FE
100
AcDbEntity
  8
製肘
  6
Continuous
 62
     4
100
AcDbCircle
 10
-61.75392895309937
 20
1.00999999999999
 30
0.0
 40
1.01
100
AcDbArc
 50
270.0
 51
345.7499673021964
  0
ARC
  5
40B
330
3FE
100
AcDbEntity
  8
製肘
  6
Continuous
 62
     4
100
AcDbCircle
 10
-36.80192895309892
 20
1.00999999999999
 30
0.0
 40
1.01
100
AcDbArc
 50
194.2500326978036
 51
270.0
  0
LINE
  5
40C
330
3FE
100
AcDbEntity
  8
製肘
  6
Continuous
 62
     4
100
AcDbLine
 10
0.7700710469007391
 20
0.0
 30
0.0
 11
-36.80192895309892
 21
0.0
 31
0.0
  0
ARC
  5
40D
330
3FE
100
AcDbEntity
  8
製肘
  6
Continuous
 62
     4
100
AcDbCircle
 10
-58.66932991457929
 20
51.16059903851982
 30
0.0
 40
2.01999999999551
100
AcDbArc
 50
6.481526915662812
 51
83.51847308433397
  0
ARC
  5
40E
330
3FE
100
AcDbEntity
  8
製肘
  6
Continuous
 62
     4
100
AcDbCircle
 10
-39.88652799161901
 20
51.16059903851982
 30
0.0
 40
2.01999999999551
100
AcDbArc
 50
96.48152691566602
 51
173.5184730843372
  0
ARC
  5
40F
330
3FE
100
AcDbEntity
  8
製肘
  6
Continuous
 62
     4
100
AcDbCircle
 10
-39.88652799161901
 20
7.419400961480164
 30
0.0
 40
2.01999999999551
100
AcDbArc
 50
186.4815269156612
 51
263.518473084334
  0
ARC
  5
410
330
3FE
100
AcDbEntity
  8
製肘
  6
Continuous
 62
     4
100
AcDbCircle
 10
-58.66932991457929
 20
7.419400961480164
 30
0.0
 40
2.01999999999551
100
AcDbArc
 50
276.481526915666
 51
353.5184730843388
  0
ARC
  5
411
330
3FE
100
AcDbEntity
  8
製肘
  6
Continuous
 62
     4
100
AcDbCircle
 10
-49.02792895309904
 20
60.80199999999996
 30
0.0
 40
12.12000000000001
100
AcDbArc
 50
194.2500326978036
 51
219.0422836754148
  0
ARC
  5
412
330
3FE
100
AcDbEntity
  8
製肘
  6
Continuous
 62
     4
100
AcDbCircle
 10
-49.52792895309904
 20
60.80199999999996
 30
0.0
 40
12.12000000000001
100
AcDbArc
 50
320.9577163245864
 51
345.7499673021964
  0
ARC
  5
413
330
3FE
100
AcDbEntity
  8
製肘
  6
Continuous
 62
     4
100
AcDbCircle
 10
-49.02792895309904
 20
60.80199999999996
 30
0.0
 40
12.12000000000001
100
AcDbArc
 50
230.9577163245862
 51
270.0
  0
ARC
  5
414
330
3FE
100
AcDbEntity
  8
製肘
  6
Continuous
 62
     4
100
AcDbCircle
 10
-49.52792895309904
 20
60.80199999999996
 30
0.0
 40
12.12000000000001
100
AcDbArc
 50
270.0
 51
309.0422836754139
  0
ARC
  5
415
330
3FE
100
AcDbEntity
  8
製肘
  6
Continuous
 62
     4
100
AcDbCircle
 10
-49.52792895309904
 20
-2.221999999999979
 30
0.0
 40
12.12000000000001
100
AcDbArc
 50
14.25003269780364
 51
39.04228367541488
  0
ARC
  5
416
330
3FE
100
AcDbEntity
  8
製肘
  6
Continuous
 62
     4
100
AcDbCircle
 10
-49.52792895309904
 20
-2.221999999999979
 30
0.0
 40
12.12000000000001
100
AcDbArc
 50
50.95771632458615
 51
90.0
  0
ARC
  5
417
330
3FE
100
AcDbEntity
  8
製肘
  6
Continuous
 62
     4
100
AcDbCircle
 10
-49.02792895309904
 20
-2.221999999999979
 30
0.0
 40
12.12000000000001
100
AcDbArc
 50
90.0
 51
129.0422836754138
  0
ARC
  5
418
330
3FE
100
AcDbEntity
  8
製肘
  6
Continuous
 62
     4
100
AcDbCircle
 10
-49.02792895309904
 20
-2.221999999999979
 30
0.0
 40
12.12000000000001
100
AcDbArc
 50
140.9577163245864
 51
165.7499673021963
  0
ARC
  5
419
330
3FE
100
AcDbEntity
  8
製肘
  6
Continuous
 62
     4
100
AcDbCircle
 10
-85.58992895309916
 20
34.34000000000001
 30
0.0
 40
1.01
100
AcDbArc
 50
90.0
 51
180.0
  0
LINE
  5
41A
330
3FE
100
AcDbEntity
  8
製肘
  6
Continuous
 62
     4
100
AcDbLine
 10
-86.59992895309915
 20
24.24000000000001
 30
0.0
 11
-86.59992895309915
 21
34.34000000000001
 31
0.0
  0
ARC
  5
41B
330
3FE
100
AcDbEntity
  8
製肘
  6
Continuous
 62
     4
100
AcDbCircle
 10
-85.58992895309916
 20
24.24000000000001
 30
0.0
 40
1.01
100
AcDbArc
 50
180.0
 51
270.0
  0
LINE
  5
41C
330
3FE
100
AcDbEntity
  8
製肘
  6
Continuous
 62
     4
100
AcDbLine
 10
-75.48992895309925
 20
23.23000000000002
 30
0.0
 11
-85.58992895309916
 21
23.23000000000002
 31
0.0
  0
ARC
  5
41D
330
3FE
100
AcDbEntity
  8
製肘
  6
Continuous
 62
     4
100
AcDbCircle
 10
-75.48992895309925
 20
24.24000000000001
 30
0.0
 40
1.01
100
AcDbArc
 50
270.0
 51
0.0
  0
LINE
  5
41E
330
3FE
100
AcDbEntity
  8
製肘
  6
Continuous
 62
     4
100
AcDbLine
 10
-74.47992895309926
 20
34.34000000000001
 30
0.0
 11
-74.47992895309926
 21
24.24000000000001
 31
0.0
  0
LINE
  5
41F
330
3FE
100
AcDbEntity
  8
製肘
  6
Continuous
 62
     4
100
AcDbLine
 10
-85.58992895309916
 20
35.35000000000002
 30
0.0
 11
-75.48992895309925
 21
35.35000000000002
 31
0.0
  0
ARC
  5
420
330
3FE
100
AcDbEntity
  8
製肘
  6
Continuous
 62
     4
100
AcDbCircle
 10
-75.48992895309925
 20
34.34000000000001
 30
0.0
 40
1.01
100
AcDbArc
 50
0.0
 51
90.0
  0
ARC
  5
421
330
3FE
100
AcDbEntity
  8
製肘
  6
Continuous
 62
     4
100
AcDbCircle
 10
-87.60992895309914
 20
36.36000000000001
 30
0.0
 40
1.01
100
AcDbArc
 50
270.0
 51
0.0
  0
ARC
  5
422
330
3FE
100
AcDbEntity
  8
製肘
  6
Continuous
 62
     4
100
AcDbCircle
 10
-87.60992895309914
 20
22.22
 30
0.0
 40
1.01
100
AcDbArc
 50
0.0
 51
90.0
  0
ARC
  5
423
330
3FE
100
AcDbEntity
  8
製肘
  6
Continuous
 62
     4
100
AcDbCircle
 10
-73.46992895309927
 20
22.22
 30
0.0
 40
1.01
100
AcDbArc
 50
90.0
 51
180.0
  0
ARC
  5
424
330
3FE
100
AcDbEntity
  8
製肘
  6
Continuous
 62
     4
100
AcDbCircle
 10
-73.46992895309927
 20
36.36000000000001
 30
0.0
 40
1.01
100
AcDbArc
 50
180.0
 51
270.0
  0
ARC
  5
425
330
3FE
100
AcDbEntity
  8
製肘
  6
Continuous
 62
     4
100
AcDbCircle
 10
-106.7999289530992
 20
37.96164430200315
 30
0.0
 40
1.01
100
AcDbArc
 50
135.0000000000069
 51
180.0
  0
LINE
  5
426
330
3FE
100
AcDbEntity
  8
製肘
  6
Continuous
 62
     4
100
AcDbLine
 10
-107.5141068020978
 20
38.67582215100157
 30
0.0
 11
-89.92575110410076
 21
56.26417784899842
 31
0.0
  0
ARC
  5
427
330
3FE
100
AcDbEntity
  8
製肘
  6
Continuous
 62
     4
100
AcDbCircle
 10
-89.2115732551024
 20
55.55000000000001
 30
0.0
 40
1.01
100
AcDbArc
 50
90.0
 51
134.999999999993
  0
LINE
  5
428
330
3FE
100
AcDbEntity
  8
製肘
  6
Continuous
 62
     4
100
AcDbLine
 10
-53.56575110410062
 20
38.67582215100157
 30
0.0
 11
-71.15410680209766
 21
56.26417784899842
 31
0.0
  0
ARC
  5
429
330
3FE
100
AcDbEntity
  8
製肘
  6
Continuous
 62
     4
100
AcDbCircle
 10
-71.86828465109602
 20
55.55000000000001
 30
0.0
 40
1.01
100
AcDbArc
 50
45.0000000000069
 51
90.0
  0
ARC
  5
42A
330
3FE
100
AcDbEntity
  8
製肘
  6
Continuous
 62
     4
100
AcDbCircle
 10
-54.27992895309921
 20
37.96164430200315
 30
0.0
 40
1.01
100
AcDbArc
 50
0.0
 51
44.99999999999309
  0
LINE
  5
42B
330
3FE
100
AcDbEntity
  8
製肘
  6
Continuous
 62
     4
100
AcDbLine
 10
-89.2115732551024
 20
56.56
 30
0.0
 11
-71.86828465109306
 21
56.56
 31
0.0
  0
LINE
  5
42C
330
3FE
100
AcDbEntity
  8
製肘
  6
Continuous
 62
     4
100
AcDbLine
 10
-107.5141068020978
 20
19.90417784899841
 30
0.0
 11
-89.92575110410076
 21
2.315822151001583
 31
0.0
  0
ARC
  5
42D
330
3FE
100
AcDbEntity
  8
製肘
  6
Continuous
 62
     4
100
AcDbCircle
 10
-106.7999289530992
 20
20.61835569799683
 30
0.0
 40
1.01
100
AcDbArc
 50
180.0
 51
224.9999999999931
  0
ARC
  5
42E
330
3FE
100
AcDbEntity
  8
製肘
  6
Continuous
 62
     4
100
AcDbCircle
 10
-89.2115732551024
 20
3.030000000000001
 30
0.0
 40
1.01
100
AcDbArc
 50
225.0000000000069
 51
270.0
  0
ARC
  5
42F
330
3FE
100
AcDbEntity
  8
製肘
  6
Continuous
 62
     4
100
AcDbCircle
 10
-71.86828465109602
 20
3.030000000000001
 30
0.0
 40
1.01
100
AcDbArc
 50
270.0
 51
314.9999999999931
  0
LINE
  5
430
330
3FE
100
AcDbEntity
  8
製肘
  6
Continuous
 62
     4
100
AcDbLine
 10
-53.56575110410062
 20
19.90417784899841
 30
0.0
 11
-71.15410680209766
 21
2.315822151001583
 31
0.0
  0
ARC
  5
431
330
3FE
100
AcDbEntity
  8
製肘
  6
Continuous
 62
     4
100
AcDbCircle
 10
-54.27992895309921
 20
20.61835569799683
 30
0.0
 40
1.01
100
AcDbArc
 50
315.000000000007
 51
0.0
  0
LINE
  5
432
330
3FE
100
AcDbEntity
  8
製肘
  6
Continuous
 62
     4
100
AcDbLine
 10
-107.8099289530992
 20
20.61835569799683
 30
0.0
 11
-107.8099289530992
 21
37.96164430200315
 31
0.0
  0
LINE
  5
433
330
3FE
100
AcDbEntity
  8
製肘
  6
Continuous
 62
     4
100
AcDbLine
 10
-89.2115732551024
 20
2.02000000000001
 30
0.0
 11
-71.86828465109602
 21
2.02000000000001
 31
0.0
  0
LINE
  5
434
330
3FE
100
AcDbEntity
  8
製肘
  6
Continuous
 62
     4
100
AcDbLine
 10
-53.26992895309922
 20
20.61835569799683
 30
0.0
 11
-53.26992895309922
 21
37.96164430200315
 31
0.0
  0
LINE
  5
435
330
3FE
100
AcDbEntity
  8
製肘
  6
Continuous
 62
     4
100
AcDbLine
 10
-86.59992895309915
 20
36.36000000000001
 30
0.0
 11
-86.59992895309915
 21
52.52000000000004
 31
0.0
  0
ARC
  5
436
330
3FE
100
AcDbEntity
  8
製肘
  6
Continuous
 62
     4
100
AcDbCircle
 10
-85.58992895309916
 20
52.52000000000004
 30
0.0
 40
1.01
100
AcDbArc
 50
90.0
 51
180.0
  0
LINE
  5
437
330
3FE
100
AcDbEntity
  8
製肘
  6
Continuous
 62
     4
100
AcDbLine
 10
-85.58992895309916
 20
53.53000000000003
 30
0.0
 11
-75.48992895309925
 21
53.53000000000003
 31
0.0
  0
LINE
  5
438
330
3FE
100
AcDbEntity
  8
製肘
  6
Continuous
 62
     4
100
AcDbLine
 10
-74.47992895309926
 20
36.36000000000001
 30
0.0
 11
-74.47992895309926
 21
52.52000000000004
 31
0.0
  0
ARC
  5
439
330
3FE
100
AcDbEntity
  8
製肘
  6
Continuous
 62
     4
100
AcDbCircle
 10
-75.48992895309925
 20
52.52000000000004
 30
0.0
 40
1.01
100
AcDbArc
 50
0.0
 51
90.0
  0
LINE
  5
43A
330
3FE
100
AcDbEntity
  8
製肘
  6
Continuous
 62
     4
100
AcDbLine
 10
-57.30992895309919
 20
35.35000000000002
 30
0.0
 11
-73.46992895309927
 21
35.35000000000002
 31
0.0
  0
ARC
  5
43B
330
3FE
100
AcDbEntity
  8
製肘
  6
Continuous
 62
     4
100
AcDbCircle
 10
-57.30992895309919
 20
34.34000000000001
 30
0.0
 40
1.01
100
AcDbArc
 50
0.0
 51
90.0
  0
LINE
  5
43C
330
3FE
100
AcDbEntity
  8
製肘
  6
Continuous
 62
     4
100
AcDbLine
 10
-57.30992895309919
 20
23.23000000000002
 30
0.0
 11
-73.46992895309927
 21
23.23000000000002
 31
0.0
  0
LINE
  5
43D
330
3FE
100
AcDbEntity
  8
製肘
  6
Continuous
 62
     4
100
AcDbLine
 10
-56.2999289530992
 20
24.24000000000001
 30
0.0
 11
-56.2999289530992
 21
34.34000000000001
 31
0.0
  0
ARC
  5
43E
330
3FE
100
AcDbEntity
  8
製肘
  6
Continuous
 62
     4
100
AcDbCircle
 10
-57.30992895309919
 20
24.24000000000001
 30
0.0
 40
1.01
100
AcDbArc
 50
270.0
 51
0.0
  0
LINE
  5
43F
330
3FE
100
AcDbEntity
  8
製肘
  6
Continuous
 62
     4
100
AcDbLine
 10
-74.47992895309926
 20
22.22
 30
0.0
 11
-74.47992895309926
 21
6.060000000000002
 31
0.0
  0
ARC
  5
440
330
3FE
100
AcDbEntity
  8
製肘
  6
Continuous
 62
     4
100
AcDbCircle
 10
-75.48992895309925
 20
6.060000000000002
 30
0.0
 40
1.01
100
AcDbArc
 50
270.0
 51
0.0
  0
LINE
  5
441
330
3FE
100
AcDbEntity
  8
製肘
  6
Continuous
 62
     4
100
AcDbLine
 10
-86.59992895309915
 20
22.22
 30
0.0
 11
-86.59992895309915
 21
6.060000000000002
 31
0.0
  0
LINE
  5
442
330
3FE
100
AcDbEntity
  8
製肘
  6
Continuous
 62
     4
100
AcDbLine
 10
-85.58992895309916
 20
5.050000000000011
 30
0.0
 11
-75.48992895309925
 21
5.050000000000011
 31
0.0
  0
ARC
  5
443
330
3FE
100
AcDbEntity
  8
製肘
  6
Continuous
 62
     4
100
AcDbCircle
 10
-85.58992895309916
 20
6.060000000000002
 30
0.0
 40
1.01
100
AcDbArc
 50
180.0
 51
270.0
  0
LINE
  5
444
330
3FE
100
AcDbEntity
  8
製肘
  6
Continuous
 62
     4
100
AcDbLine
 10
-103.7699289530992
 20
23.23000000000002
 30
0.0
 11
-87.60992895309914
 21
23.23000000000002
 31
0.0
  0
ARC
  5
445
330
3FE
100
AcDbEntity
  8
製肘
  6
Continuous
 62
     4
100
AcDbCircle
 10
-103.7699289530992
 20
24.24000000000001
 30
0.0
 40
1.01
100
AcDbArc
 50
180.0
 51
270.0
  0
LINE
  5
446
330
3FE
100
AcDbEntity
  8
製肘
  6
Continuous
 62
     4
100
AcDbLine
 10
-103.7699289530992
 20
35.35000000000002
 30
0.0
 11
-87.60992895309914
 21
35.35000000000002
 31
0.0
  0
LINE
  5
447
330
3FE
100
AcDbEntity
  8
製肘
  6
Continuous
 62
     4
100
AcDbLine
 10
-104.7799289530992
 20
24.24000000000001
 30
0.0
 11
-104.7799289530992
 21
34.34000000000001
 31
0.0
  0
ARC
  5
448
330
3FE
100
AcDbEntity
  8
製肘
  6
Continuous
 62
     4
100
AcDbCircle
 10
-103.7699289530992
 20
34.34000000000001
 30
0.0
 40
1.01
100
AcDbArc
 50
90.0
 51
180.0
  0
ARC
  5
449
330
3FE
100
AcDbEntity
  8
製肘
  6
Continuous
 62
     4
100
AcDbCircle
 10
-44.02592895309908
 20
37.96164430200315
 30
0.0
 40
1.01
100
AcDbArc
 50
135.0000000000069
 51
180.0
  0
ARC
  5
44A
330
3FE
100
AcDbEntity
  8
製肘
  6
Continuous
 62
     4
100
AcDbCircle
 10
-44.02592895309908
 20
20.61835569799683
 30
0.0
 40
1.01
100
AcDbArc
 50
180.0
 51
224.9999999999931
  0
LINE
  5
44B
330
3FE
100
AcDbEntity
  8
製肘
  6
Continuous
 62
     4
100
AcDbLine
 10
-45.03592895309907
 20
20.61835569799683
 30
0.0
 11
-45.03592895309907
 21
37.96164430200315
 31
0.0
  0
ARC
  5
44C
330
3FE
100
AcDbEntity
  8
製肘
  6
Continuous
 62
     4
100
AcDbCircle
 10
-41.24592895309911
 20
34.34000000000001
 30
0.0
 40
1.01
100
AcDbArc
 50
90.0
 51
180.0
  0
LINE
  5
44D
330
3FE
100
AcDbEntity
  8
製肘
  6
Continuous
 62
     4
100
AcDbLine
 10
-42.2559289530991
 20
24.24000000000001
 30
0.0
 11
-42.2559289530991
 21
34.34000000000001
 31
0.0
  0
ARC
  5
44E
330
3FE
100
AcDbEntity
  8
製肘
  6
Continuous
 62
     4
100
AcDbCircle
 10
-41.24592895309911
 20
24.24000000000001
 30
0.0
 40
1.01
100
AcDbArc
 50
180.0
 51
270.0
  0
LINE
  5
44F
330
3FE
100
AcDbEntity
  8
製肘
  6
Continuous
 62
     4
100
AcDbLine
 10
-44.99010680209766
 20
19.90417784899841
 30
0.0
 11
-27.40175110410064
 21
2.315822151001583
 31
0.0
  0
LINE
  5
450
330
3FE
100
AcDbEntity
  8
製肘
  6
Continuous
 62
     4
100
AcDbLine
 10
-41.24592895309911
 20
23.23000000000002
 30
0.0
 11
-25.08592895309903
 21
23.23000000000002
 31
0.0
  0
LINE
  5
451
330
3FE
100
AcDbEntity
  8
製肘
  6
Continuous
 62
     4
100
AcDbLine
 10
-41.24592895309911
 20
35.35000000000002
 30
0.0
 11
-25.08592895309903
 21
35.35000000000002
 31
0.0
  0
LINE
  5
452
330
3FE
100
AcDbEntity
  8
製肘
  6
Continuous
 62
     4
100
AcDbLine
 10
-44.99010680209766
 20
38.67582215100157
 30
0.0
 11
-27.40175110410064
 21
56.26417784899842
 31
0.0
  0
ARC
  5
453
330
3FE
100
AcDbEntity
  8
製肘
  6
Continuous
 62
     4
100
AcDbCircle
 10
-12.96592895309913
 20
34.34000000000001
 30
0.0
 40
1.01
100
AcDbArc
 50
0.0
 51
90.0
  0
LINE
  5
454
330
3FE
100
AcDbEntity
  8
製肘
  6
Continuous
 62
     4
100
AcDbLine
 10
-12.96592895309913
 20
35.35000000000002
 30
0.0
 11
-23.06592895309905
 21
35.35000000000002
 31
0.0
  0
ARC
  5
455
330
3FE
100
AcDbEntity
  8
製肘
  6
Continuous
 62
     4
100
AcDbCircle
 10
-23.06592895309905
 20
34.34000000000001
 30
0.0
 40
1.01
100
AcDbArc
 50
90.0
 51
180.0
  0
ARC
  5
456
330
3FE
100
AcDbEntity
  8
製肘
  6
Continuous
 62
     4
100
AcDbCircle
 10
-10.94592895309915
 20
36.36000000000001
 30
0.0
 40
1.01
100
AcDbArc
 50
180.0
 51
270.0
  0
ARC
  5
457
330
3FE
100
AcDbEntity
  8
製肘
  6
Continuous
 62
     4
100
AcDbCircle
 10
-25.08592895309903
 20
36.36000000000001
 30
0.0
 40
1.01
100
AcDbArc
 50
270.0
 51
0.0
  0
ARC
  5
458
330
3FE
100
AcDbEntity
  8
製肘
  6
Continuous
 62
     4
100
AcDbCircle
 10
-9.344284651095904
 20
55.55000000000001
 30
0.0
 40
1.01
100
AcDbArc
 50
45.0000000000069
 51
90.0
  0
ARC
  5
459
330
3FE
100
AcDbEntity
  8
製肘
  6
Continuous
 62
     4
100
AcDbCircle
 10
-26.68757325510228
 20
55.55000000000001
 30
0.0
 40
1.01
100
AcDbArc
 50
90.0
 51
134.999999999993
  0
LINE
  5
45A
330
3FE
100
AcDbEntity
  8
製肘
  6
Continuous
 62
     4
100
AcDbLine
 10
-9.344284651095904
 20
56.56
 30
0.0
 11
-26.68757325510524
 21
56.56
 31
0.0
  0
LINE
  5
45B
330
3FE
100
AcDbEntity
  8
製肘
  6
Continuous
 62
     4
100
AcDbLine
 10
-11.95592895309914
 20
36.36000000000001
 30
0.0
 11
-11.95592895309914
 21
52.52000000000004
 31
0.0
  0
ARC
  5
45C
330
3FE
100
AcDbEntity
  8
製肘
  6
Continuous
 62
     4
100
AcDbCircle
 10
-12.96592895309913
 20
52.52000000000004
 30
0.0
 40
1.01
100
AcDbArc
 50
0.0
 51
90.0
  0
LINE
  5
45D
330
3FE
100
AcDbEntity
  8
製肘
  6
Continuous
 62
     4
100
AcDbLine
 10
-12.96592895309913
 20
53.53000000000003
 30
0.0
 11
-23.06592895309905
 21
53.53000000000003
 31
0.0
  0
LINE
  5
45E
330
3FE
100
AcDbEntity
  8
製肘
  6
Continuous
 62
     4
100
AcDbLine
 10
-24.07592895309904
 20
36.36000000000001
 30
0.0
 11
-24.07592895309904
 21
52.52000000000004
 31
0.0
  0
ARC
  5
45F
330
3FE
100
AcDbEntity
  8
製肘
  6
Continuous
 62
     4
100
AcDbCircle
 10
-23.06592895309905
 20
52.52000000000004
 30
0.0
 40
1.01
100
AcDbArc
 50
90.0
 51
180.0
  0
ARC
  5
460
330
3FE
100
AcDbEntity
  8
製肘
  6
Continuous
 62
     4
100
AcDbCircle
 10
-12.96592895309913
 20
24.24000000000001
 30
0.0
 40
1.01
100
AcDbArc
 50
270.0
 51
0.0
  0
LINE
  5
461
330
3FE
100
AcDbEntity
  8
製肘
  6
Continuous
 62
     4
100
AcDbLine
 10
-23.06592895309905
 20
23.23000000000002
 30
0.0
 11
-12.96592895309913
 21
23.23000000000002
 31
0.0
  0
ARC
  5
462
330
3FE
100
AcDbEntity
  8
製肘
  6
Continuous
 62
     4
100
AcDbCircle
 10
-23.06592895309905
 20
24.24000000000001
 30
0.0
 40
1.01
100
AcDbArc
 50
180.0
 51
270.0
  0
ARC
  5
463
330
3FE
100
AcDbEntity
  8
製肘
  6
Continuous
 62
     4
100
AcDbCircle
 10
-10.94592895309915
 20
22.22
 30
0.0
 40
1.01
100
AcDbArc
 50
90.0
 51
180.0
  0
ARC
  5
464
330
3FE
100
AcDbEntity
  8
製肘
  6
Continuous
 62
     4
100
AcDbCircle
 10
-25.08592895309903
 20
22.22
 30
0.0
 40
1.01
100
AcDbArc
 50
0.0
 51
90.0
  0
ARC
  5
465
330
3FE
100
AcDbEntity
  8
製肘
  6
Continuous
 62
     4
100
AcDbCircle
 10
-26.68757325510228
 20
3.030000000000001
 30
0.0
 40
1.01
100
AcDbArc
 50
225.0000000000069
 51
270.0
  0
LINE
  5
466
330
3FE
100
AcDbEntity
  8
製肘
  6
Continuous
 62
     4
100
AcDbLine
 10
-9.344284651095904
 20
2.02000000000001
 30
0.0
 11
-26.68757325510228
 21
2.02000000000001
 31
0.0
  0
LINE
  5
467
330
3FE
100
AcDbEntity
  8
製肘
  6
Continuous
 62
     4
100
AcDbLine
 10
-24.07592895309904
 20
22.22
 30
0.0
 11
-24.07592895309904
 21
6.060000000000002
 31
0.0
  0
ARC
  5
468
330
3FE
100
AcDbEntity
  8
製肘
  6
Continuous
 62
     4
100
AcDbCircle
 10
-23.06592895309905
 20
6.060000000000002
 30
0.0
 40
1.01
100
AcDbArc
 50
180.0
 51
270.0
  0
LINE
  5
469
330
3FE
100
AcDbEntity
  8
製肘
  6
Continuous
 62
     4
100
AcDbLine
 10
-11.95592895309914
 20
22.22
 30
0.0
 11
-11.95592895309914
 21
6.060000000000002
 31
0.0
  0
LINE
  5
46A
330
3FE
100
AcDbEntity
  8
製肘
  6
Continuous
 62
     4
100
AcDbLine
 10
-12.96592895309913
 20
5.050000000000011
 30
0.0
 11
-23.06592895309905
 21
5.050000000000011
 31
0.0
  0
ARC
  5
46B
330
3FE
100
AcDbEntity
  8
製肘
  6
Continuous
 62
     4
100
AcDbCircle
 10
-12.96592895309913
 20
6.060000000000002
 30
0.0
 40
1.01
100
AcDbArc
 50
270.0
 51
0.0
  0
LINE
  5
46C
330
3FE
100
AcDbEntity
  8
製肘
  6
Continuous
 62
     4
100
AcDbLine
 10
8.958248895899487
 20
19.90417784899841
 30
0.0
 11
-8.630106802097543
 21
2.315822151001583
 31
0.0
  0
ARC
  5
46D
330
3FE
100
AcDbEntity
  8
製肘
  6
Continuous
 62
     4
100
AcDbCircle
 10
-9.344284651095904
 20
3.030000000000001
 30
0.0
 40
1.01
100
AcDbArc
 50
270.0
 51
314.9999999999931
  0
LINE
  5
46E
330
3FE
100
AcDbEntity
  8
製肘
  6
Continuous
 62
     4
100
AcDbLine
 10
5.214071046900926
 20
23.23000000000002
 30
0.0
 11
-10.94592895309915
 21
23.23000000000002
 31
0.0
  0
LINE
  5
46F
330
3FE
100
AcDbEntity
  8
製肘
  6
Continuous
 62
     4
100
AcDbLine
 10
5.214071046900926
 20
35.35000000000002
 30
0.0
 11
-10.94592895309915
 21
35.35000000000002
 31
0.0
  0
ARC
  5
470
330
3FE
100
AcDbEntity
  8
製肘
  6
Continuous
 62
     4
100
AcDbCircle
 10
8.244071046900899
 20
37.96164430200315
 30
0.0
 40
1.01
100
AcDbArc
 50
0.0
 51
44.99999999999309
  0
ARC
  5
471
330
3FE
100
AcDbEntity
  8
製肘
  6
Continuous
 62
     4
100
AcDbCircle
 10
8.244071046900899
 20
20.61835569799683
 30
0.0
 40
1.01
100
AcDbArc
 50
315.000000000007
 51
0.0
  0
LINE
  5
472
330
3FE
100
AcDbEntity
  8
製肘
  6
Continuous
 62
     4
100
AcDbLine
 10
9.254071046900889
 20
20.61835569799683
 30
0.0
 11
9.254071046900889
 21
37.96164430200315
 31
0.0
  0
ARC
  5
473
330
3FE
100
AcDbEntity
  8
製肘
  6
Continuous
 62
     4
100
AcDbCircle
 10
5.214071046900926
 20
24.24000000000001
 30
0.0
 40
1.01
100
AcDbArc
 50
270.0
 51
0.0
  0
LINE
  5
474
330
3FE
100
AcDbEntity
  8
製肘
  6
Continuous
 62
     4
100
AcDbLine
 10
6.224071046900917
 20
24.24000000000001
 30
0.0
 11
6.224071046900917
 21
34.34000000000001
 31
0.0
  0
ARC
  5
475
330
3FE
100
AcDbEntity
  8
製肘
  6
Continuous
 62
     4
100
AcDbCircle
 10
5.214071046900926
 20
34.34000000000001
 30
0.0
 40
1.01
100
AcDbArc
 50
0.0
 51
90.0
  0
LINE
  5
476
330
3FE
100
AcDbEntity
  8
製肘
  6
Continuous
 62
     4
100
AcDbLine
 10
-24.07592895309904
 20
34.34000000000001
 30
0.0
 11
-24.07592895309904
 21
24.24000000000001
 31
0.0
  0
LINE
  5
477
330
3FE
100
AcDbEntity
  8
製肘
  6
Continuous
 62
     4
100
AcDbLine
 10
-11.95592895309914
 20
24.24000000000001
 30
0.0
 11
-11.95592895309914
 21
34.34000000000001
 31
0.0
  0
LINE
  5
478
330
3FE
100
AcDbEntity
  8
製肘
  6
Continuous
 62
     4
100
AcDbLine
 10
8.958248895899487
 20
38.67582215100157
 30
0.0
 11
-8.630106802097543
 21
56.26417784899842
 31
0.0
  0
LINE
  5
479
330
3FE
100
AcDbEntity
  8
製肘
  6
Continuous
 62
     4
100
AcDbLine
 10
-109.6279289530992
 20
48.07600000000002
 30
0.0
 11
-109.6279289530992
 21
10.50399999999996
 31
0.0
  0
LINE
  5
47A
330
3FE
100
AcDbEntity
  8
製肘
  6
Continuous
 62
     4
100
AcDbLine
 10
11.07207104690087
 20
48.07600000000002
 30
0.0
 11
11.07207104690087
 21
10.50399999999996
 31
0.0
  0
ARC
  5
47B
330
3FE
100
AcDbEntity
  8
製肘
  6
Continuous
 62
     4
100
AcDbCircle
 10
-99.12392895309928
 20
57.56999999999999
 30
0.0
 40
1.01
100
AcDbArc
 50
90.0
 51
165.7499673021963
  0
ARC
  5
47C
330
3FE
100
AcDbEntity
  8
製肘
  6
Continuous
 62
     4
100
AcDbCircle
 10
-108.6179289530992
 20
48.07600000000002
 30
0.0
 40
1.01
100
AcDbArc
 50
104.2500326978068
 51
180.0
  0
ARC
  5
47D
330
3FE
100
AcDbEntity
  8
製肘
  6
Continuous
 62
     4
100
AcDbCircle
 10
-102.2085279916189
 20
51.16059903851982
 30
0.0
 40
2.01999999999551
100
AcDbArc
 50
96.48152691566602
 51
173.5184730843372
  0
ARC
  5
47E
330
3FE
100
AcDbEntity
  8
製肘
  6
Continuous
 62
     4
100
AcDbCircle
 10
-111.8499289530991
 20
60.80199999999996
 30
0.0
 40
12.12000000000001
100
AcDbArc
 50
320.9577163245864
 51
345.7499673021964
  0
ARC
  5
47F
330
3FE
100
AcDbEntity
  8
製肘
  6
Continuous
 62
     4
100
AcDbCircle
 10
-111.8499289530991
 20
60.80199999999996
 30
0.0
 40
12.12000000000001
100
AcDbArc
 50
284.2500326978068
 51
309.0422836754149
  0
ARC
  5
480
330
3FE
100
AcDbEntity
  8
製肘
  6
Continuous
 62
     4
100
AcDbCircle
 10
-99.12392895309928
 20
1.00999999999999
 30
0.0
 40
1.01
100
AcDbArc
 50
194.2500326978036
 51
270.0
  0
ARC
  5
481
330
3FE
100
AcDbEntity
  8
製肘
  6
Continuous
 62
     4
100
AcDbCircle
 10
-108.6179289530992
 20
10.50399999999996
 30
0.0
 40
1.01
100
AcDbArc
 50
180.0
 51
255.7499673021932
  0
ARC
  5
482
330
3FE
100
AcDbEntity
  8
製肘
  6
Continuous
 62
     4
100
AcDbCircle
 10
-102.2085279916189
 20
7.419400961480164
 30
0.0
 40
2.01999999999551
100
AcDbArc
 50
186.4815269156612
 51
263.518473084334
  0
ARC
  5
483
330
3FE
100
AcDbEntity
  8
製肘
  6
Continuous
 62
     4
100
AcDbCircle
 10
-111.8499289530991
 20
-2.221999999999979
 30
0.0
 40
12.12000000000001
100
AcDbArc
 50
14.25003269780364
 51
39.04228367541488
  0
ARC
  5
484
330
3FE
100
AcDbEntity
  8
製肘
  6
Continuous
 62
     4
100
AcDbCircle
 10
-111.8499289530991
 20
-2.221999999999979
 30
0.0
 40
12.12000000000001
100
AcDbArc
 50
50.95771632458513
 51
75.7499673021932
  0
ARC
  5
485
330
3FE
100
AcDbEntity
  8
製肘
  6
Continuous
 62
     4
100
AcDbCircle
 10
0.5680710469009683
 20
57.56999999999999
 30
0.0
 40
1.01
100
AcDbArc
 50
14.25003269780364
 51
90.0
  0
ARC
  5
486
330
3FE
100
AcDbEntity
  8
製肘
  6
Continuous
 62
     4
100
AcDbCircle
 10
10.06207104690088
 20
48.07600000000002
 30
0.0
 40
1.01
100
AcDbArc
 50
0.0
 51
75.7499673021932
  0
ARC
  5
487
330
3FE
100
AcDbEntity
  8
製肘
  6
Continuous
 62
     4
100
AcDbCircle
 10
3.652670085420595
 20
51.16059903851982
 30
0.0
 40
2.01999999999551
100
AcDbArc
 50
6.481526915661194
 51
83.51847308433397
  0
ARC
  5
488
330
3FE
100
AcDbEntity
  8
製肘
  6
Continuous
 62
     4
100
AcDbCircle
 10
13.29407104690085
 20
60.80199999999996
 30
0.0
 40
12.12000000000001
100
AcDbArc
 50
194.2500326978036
 51
219.0422836754148
  0
ARC
  5
489
330
3FE
100
AcDbEntity
  8
製肘
  6
Continuous
 62
     4
100
AcDbCircle
 10
13.29407104690085
 20
60.80199999999996
 30
0.0
 40
12.12000000000001
100
AcDbArc
 50
230.9577163245851
 51
255.7499673021932
  0
ARC
  5
48A
330
3FE
100
AcDbEntity
  8
製肘
  6
Continuous
 62
     4
100
AcDbCircle
 10
0.5680710469009683
 20
1.00999999999999
 30
0.0
 40
1.01
100
AcDbArc
 50
270.0
 51
345.7499673021964
  0
ARC
  5
48B
330
3FE
100
AcDbEntity
  8
製肘
  6
Continuous
 62
     4
100
AcDbCircle
 10
10.06207104690088
 20
10.50399999999996
 30
0.0
 40
1.01
100
AcDbArc
 50
284.2500326978068
 51
0.0
  0
ARC
  5
48C
330
3FE
100
AcDbEntity
  8
製肘
  6
Continuous
 62
     4
100
AcDbCircle
 10
3.652670085420595
 20
7.419400961480164
 30
0.0
 40
2.01999999999551
100
AcDbArc
 50
276.4815269156531
 51
353.5184730843388
  0
ARC
  5
48D
330
3FE
100
AcDbEntity
  8
製肘
  6
Continuous
 62
     4
100
AcDbCircle
 10
13.29407104690085
 20
-2.222000000000036
 30
0.0
 40
12.12000000000001
100
AcDbArc
 50
104.2500326978068
 51
129.0422836754148
  0
ARC
  5
48E
330
3FE
100
AcDbEntity
  8
製肘
  6
Continuous
 62
     4
100
AcDbCircle
 10
13.29407104690085
 20
-2.222000000000036
 30
0.0
 40
12.12000000000001
100
AcDbArc
 50
140.9577163245864
 51
165.7499673021963
  0
LWPOLYLINE
  5
48F
330
3FE
100
AcDbEntity
  8
製肘
  6
Continuous
100
AcDbPolyline
 90
        3
 70
   129
 43
0.0
 10
-86.59992895309915
 20
59.32999999999998
 10
-87.03294165499142
 20
58.57999999999998
 10
-86.16691625120688
 20
58.57999999999998
  0
LWPOLYLINE
  5
490
330
3FE
100
AcDbEntity
  8
製肘
  6
Continuous
100
AcDbPolyline
 90
        3
 70
   129
 43
0.0
 10
-74.47992895309926
 20
59.32999999999998
 10
-74.91294165499152
 20
58.57999999999998
 10
-74.04691625120699
 20
58.57999999999998
  0
LWPOLYLINE
  5
491
330
3FE
100
AcDbEntity
  8
製肘
  6
Continuous
100
AcDbPolyline
 90
        3
 70
   129
 43
0.0
 10
-24.09992895309915
 20
59.32999999999998
 10
-24.53294165499142
 20
58.57999999999998
 10
-23.66691625120688
 20
58.57999999999998
  0
LWPOLYLINE
  5
492
330
3FE
100
AcDbEntity
  8
製肘
  6
Continuous
100
AcDbPolyline
 90
        3
 70
   129
 43
0.0
 10
-11.97992895309926
 20
59.32999999999998
 10
-12.41294165499153
 20
58.57999999999998
 10
-11.54691625120699
 20
58.57999999999998
  0
LWPOLYLINE
  5
493
330
3FE
100
AcDbEntity
  8
製肘
  6
Continuous
100
AcDbPolyline
 90
        3
 70
   129
 43
0.0
 10
-86.59992895309915
 20
-0.7499999999999432
 10
-87.03294165499142
 20
0.0000000000000568
 10
-86.16691625120688
 20
0.0000000000000568
  0
LWPOLYLINE
  5
494
330
3FE
100
AcDbEntity
  8
製肘
  6
Continuous
100
AcDbPolyline
 90
        3
 70
   129
 43
0.0
 10
-74.47992895309926
 20
-0.7499999999999432
 10
-74.91294165499152
 20
0.0000000000000568
 10
-74.04691625120699
 20
0.0000000000000568
  0
LWPOLYLINE
  5
495
330
3FE
100
AcDbEntity
  8
製肘
  6
Continuous
100
AcDbPolyline
 90
        3
 70
   129
 43
0.0
 10
-24.09992895309915
 20
-0.7499999999999432
 10
-24.53294165499142
 20
0.0000000000000568
 10
-23.66691625120688
 20
0.0000000000000568
  0
LWPOLYLINE
  5
496
330
3FE
100
AcDbEntity
  8
製肘
  6
Continuous
100
AcDbPolyline
 90
        3
 70
   129
 43
0.0
 10
-11.97992895309926
 20
-0.7499999999999432
 10
-12.41294165499153
 20
0.0000000000000568
 10
-11.54691625120699
 20
0.0000000000000568
  0
LWPOLYLINE
  5
497
330
3FE
100
AcDbEntity
  8
製肘
  6
Continuous
100
AcDbPolyline
 90
        3
 70
   129
 43
0.0
 10
11.82207104690087
 20
35.37400000000008
 10
11.07207104690087
 20
35.80701270189235
 10
11.07207104690087
 20
34.94098729810782
  0
LWPOLYLINE
  5
498
330
3FE
100
AcDbEntity
  8
製肘
  6
Continuous
100
AcDbPolyline
 90
        3
 70
   129
 43
0.0
 10
11.82207104690087
 20
23.25400000000019
 10
11.07207104690087
 20
23.68701270189246
 10
11.07207104690087
 20
22.82098729810792
  0
LWPOLYLINE
  5
499
330
3FE
100
AcDbEntity
  8
製肘
  6
Continuous
100
AcDbPolyline
 90
        3
 70
   129
 43
0.0
 10
-110.3779289530991
 20
35.34999999999997
 10
-109.6279289530992
 20
35.78301270189224
 10
-109.6279289530992
 20
34.9169872981077
  0
LWPOLYLINE
  5
49A
330
3FE
100
AcDbEntity
  8
製肘
  6
Continuous
100
AcDbPolyline
 90
        3
 70
   129
 43
0.0
 10
-110.3779289530991
 20
23.23000000000007
 10
-109.6279289530992
 20
23.66301270189234
 10
-109.6279289530992
 20
22.79698729810781
  0
ENDBLK
  5
400
330
3FE
100
AcDbEntity
  8
0
100
AcDbBlockEnd
  0
BLOCK
  5
4C6
330
4C5
100
AcDbEntity
  8
0
100
AcDbBlockBegin
  2
*D12
 70
     1
 10
0.0
 20
0.0
 30
0.0
  3
*D12
  1

  0
LINE
  5
73E
330
4C5
100
AcDbEntity
  8
寸法
  6
Continuous
 62
     0
440
 16777216
370
    -2
100
AcDbLine
 10
-1399.497168177635
 20
69.38182941706509
 30
0.0
 11
-1399.497168177635
 21
111.6040686635753
 31
0.0
  0
LINE
  5
73F
330
4C5
100
AcDbEntity
  8
寸法
  6
Continuous
 62
     0
440
 16777216
370
    -2
100
AcDbLine
 10
-1277.297168177635
 20
69.4058294170652
 30
0.0
 11
-1277.297168177635
 21
111.6040686635753
 31
0.0
  0
LINE
  5
740
330
4C5
100
AcDbEntity
  8
寸法
  6
Continuous
 62
     1
440
 16777216
370
    -2
100
AcDbLine
 10
-1389.497168177635
 20
111.4240686635753
 30
0.0
 11
-1345.153834844302
 21
111.4240686635753
 31
0.0
  0
LINE
  5
741
330
4C5
100
AcDbEntity
  8
寸法
  6
Continuous
 62
     1
440
 16777216
370
    -2
100
AcDbLine
 10
-1287.297168177635
 20
111.4240686635753
 30
0.0
 11
-1331.640501510968
 21
111.4240686635753
 31
0.0
  0
INSERT
  5
742
330
4C5
100
AcDbEntity
  8
寸法
  6
Continuous
 62
     1
440
 16777216
370
    -2
100
AcDbBlockReference
  2
_Open30
 10
-1399.497168177635
 20
111.4240686635753
 30
0.0
 41
10.0
 42
10.0
 43
10.0
 50
180.0
  0
INSERT
  5
743
330
4C5
100
AcDbEntity
  8
寸法
  6
Continuous
 62
     1
440
 16777216
370
    -2
100
AcDbBlockReference
  2
_Open30
 10
-1277.297168177635
 20
111.4240686635753
 30
0.0
 41
10.0
 42
10.0
 43
10.0
  0
MTEXT
  5
744
330
4C5
100
AcDbEntity
  8
寸法
  6
Continuous
 62
     7
440
 16777216
100
AcDbMText
 10
-1338.397168177635
 20
111.4240686635753
 30
0.0
 40
10.0
 41
0.0
 46
0.0
 71
     5
 72
     1
  1
\A1;{\H0.5x;122}
 73
     1
 44
1.0
  0
POINT
  5
745
330
4C5
100
AcDbEntity
  8
Defpoints
  6
Continuous
 62
     0
440
 16777216
100
AcDbPoint
 10
-1399.497168177635
 20
69.31932941706509
 30
0.0
  0
POINT
  5
746
330
4C5
100
AcDbEntity
  8
Defpoints
  6
Continuous
 62
     0
440
 16777216
100
AcDbPoint
 10
-1277.297168177635
 20
69.34332941706521
 30
0.0
  0
POINT
  5
747
330
4C5
100
AcDbEntity
  8
Defpoints
  6
Continuous
 62
     0
440
 16777216
100
AcDbPoint
 10
-1277.297168177635
 20
111.4240686635753
 30
0.0
  0
ENDBLK
  5
4C7
330
4C5
100
AcDbEntity
  8
0
100
AcDbBlockEnd
  0
BLOCK
  5
54D
330
54C
100
AcDbEntity
  8
0
100
AcDbBlockBegin
  2
*D13
 70
     1
 10
0.0
 20
0.0
 30
0.0
  3
*D13
  1

  0
LINE
  5
662
330
54C
100
AcDbEntity
  8
寸法
  6
Continuous
 62
     0
440
 16777216
370
    -2
100
AcDbLine
 10
-1375.781668177635
 20
93.29932941706511
 30
0.0
 11
-1420.318217282107
 21
93.29932941706513
 31
0.0
  0
LINE
  5
663
330
54C
100
AcDbEntity
  8
寸法
  6
Continuous
 62
     0
440
 16777216
370
    -2
100
AcDbLine
 10
-1375.781668177635
 20
33.21932941706518
 30
0.0
 11
-1420.318217282107
 21
33.21932941706519
 31
0.0
  0
LINE
  5
664
330
54C
100
AcDbEntity
  8
寸法
  6
Continuous
 62
     1
440
 16777216
370
    -2
100
AcDbLine
 10
-1420.138217282107
 20
83.29932941706513
 30
0.0
 11
-1420.138217282107
 21
65.84932941706516
 31
0.0
  0
LINE
  5
665
330
54C
100
AcDbEntity
  8
寸法
  6
Continuous
 62
     1
440
 16777216
370
    -2
100
AcDbLine
 10
-1420.138217282107
 20
43.21932941706519
 30
0.0
 11
-1420.138217282107
 21
60.66932941706515
 31
0.0
  0
INSERT
  5
666
330
54C
100
AcDbEntity
  8
寸法
  6
Continuous
 62
     1
440
 16777216
370
    -2
100
AcDbBlockReference
  2
_Open30
 10
-1420.138217282107
 20
93.29932941706513
 30
0.0
 41
10.0
 42
10.0
 43
10.0
 50
90.0
  0
INSERT
  5
667
330
54C
100
AcDbEntity
  8
寸法
  6
Continuous
 62
     1
440
 16777216
370
    -2
100
AcDbBlockReference
  2
_Open30
 10
-1420.138217282107
 20
33.21932941706519
 30
0.0
 41
10.0
 42
10.0
 43
10.0
 50
270.0
  0
MTEXT
  5
668
330
54C
100
AcDbEntity
  8
寸法
  6
Continuous
 62
     7
440
 16777216
100
AcDbMText
 10
-1420.138217282107
 20
63.25932941706494
 30
0.0
 40
10.0
 41
0.0
 46
0.0
 71
     5
 72
     1
  1
\A1;{\H0.5x;60}
 73
     1
 44
1.0
  0
POINT
  5
669
330
54C
100
AcDbEntity
  8
Defpoints
  6
Continuous
 62
     0
440
 16777216
100
AcDbPoint
 10
-1375.719168177635
 20
93.29932941706511
 30
0.0
  0
POINT
  5
66A
330
54C
100
AcDbEntity
  8
Defpoints
  6
Continuous
 62
     0
440
 16777216
100
AcDbPoint
 10
-1375.719168177635
 20
33.21932941706518
 30
0.0
  0
POINT
  5
66B
330
54C
100
AcDbEntity
  8
Defpoints
  6
Continuous
 62
     0
440
 16777216
100
AcDbPoint
 10
-1420.138217282107
 20
33.21932941706519
 30
0.0
  0
ENDBLK
  5
54E
330
54C
100
AcDbEntity
  8
0
100
AcDbBlockEnd
  0
BLOCK
  5
5C1
330
5C0
100
AcDbEntity
  8
0
100
AcDbBlockBegin
  2
*D14
 70
     1
 10
0.0
 20
0.0
 30
0.0
  3
*D14
  1

  0
LINE
  5
66C
330
5C0
100
AcDbEntity
  8
寸法
  6
Continuous
 62
     0
440
 16777216
370
    -2
100
AcDbLine
 10
-1397.805423318864
 20
18.33448605744311
 30
0.0
 11
-1420.318217282107
 21
18.33448605744312
 31
0.0
  0
LINE
  5
66D
330
5C0
100
AcDbEntity
  8
寸法
  6
Continuous
 62
     0
440
 16777216
370
    -2
100
AcDbLine
 10
-1397.805423318864
 20
-30.13551394255689
 30
0.0
 11
-1420.318217282107
 21
-30.13551394255688
 31
0.0
  0
LINE
  5
66E
330
5C0
100
AcDbEntity
  8
寸法
  6
Continuous
 62
     1
440
 16777216
370
    -2
100
AcDbLine
 10
-1420.138217282107
 20
8.334486057443122
 30
0.0
 11
-1420.138217282107
 21
-3.310513942556878
 31
0.0
  0
LINE
  5
66F
330
5C0
100
AcDbEntity
  8
寸法
  6
Continuous
 62
     1
440
 16777216
370
    -2
100
AcDbLine
 10
-1420.138217282107
 20
-20.13551394255688
 30
0.0
 11
-1420.138217282107
 21
-8.490513942556876
 31
0.0
  0
INSERT
  5
670
330
5C0
100
AcDbEntity
  8
寸法
  6
Continuous
 62
     1
440
 16777216
370
    -2
100
AcDbBlockReference
  2
_Open30
 10
-1420.138217282107
 20
18.33448605744312
 30
0.0
 41
10.0
 42
10.0
 43
10.0
 50
90.0
  0
INSERT
  5
671
330
5C0
100
AcDbEntity
  8
寸法
  6
Continuous
 62
     1
440
 16777216
370
    -2
100
AcDbBlockReference
  2
_Open30
 10
-1420.138217282107
 20
-30.13551394255688
 30
0.0
 41
10.0
 42
10.0
 43
10.0
 50
270.0
  0
MTEXT
  5
672
330
5C0
100
AcDbEntity
  8
寸法
  6
Continuous
 62
     7
440
 16777216
100
AcDbMText
 10
-1420.138217282107
 20
-5.900513942557106
 30
0.0
 40
10.0
 41
0.0
 46
0.0
 71
     5
 72
     1
  1
\A1;{\H0.5x;48}
 73
     1
 44
1.0
  0
POINT
  5
673
330
5C0
100
AcDbEntity
  8
Defpoints
  6
Continuous
 62
     0
440
 16777216
100
AcDbPoint
 10
-1397.742923318864
 20
18.33448605744311
 30
0.0
  0
POINT
  5
674
330
5C0
100
AcDbEntity
  8
Defpoints
  6
Continuous
 62
     0
440
 16777216
100
AcDbPoint
 10
-1397.742923318864
 20
-30.13551394255689
 30
0.0
  0
POINT
  5
675
330
5C0
100
AcDbEntity
  8
Defpoints
  6
Continuous
 62
     0
440
 16777216
100
AcDbPoint
 10
-1420.138217282107
 20
-30.13551394255688
 30
0.0
  0
ENDBLK
  5
5C2
330
5C0
100
AcDbEntity
  8
0
100
AcDbBlockEnd
  0
BLOCK
  5
709
330
708
100
AcDbEntity
  8
0
100
AcDbBlockBegin
  2
*D16
 70
     1
 10
0.0
 20
0.0
 30
0.0
  3
*D16
  1

  0
LINE
  5
752
330
708
100
AcDbEntity
  8
寸法
  6
Continuous
 62
     0
440
 16777216
370
    -2
100
AcDbLine
 10
-1263.224467626829
 20
93.44772624496243
 30
0.0
 11
-1263.224467626829
 21
111.6040686635753
 31
0.0
  0
LINE
  5
753
330
708
100
AcDbEntity
  8
寸法
  6
Continuous
 62
     0
440
 16777216
370
    -2
100
AcDbLine
 10
-1214.754467626829
 20
93.44772624496243
 30
0.0
 11
-1214.754467626829
 21
111.6040686635753
 31
0.0
  0
LINE
  5
754
330
708
100
AcDbEntity
  8
寸法
  6
Continuous
 62
     1
440
 16777216
370
    -2
100
AcDbLine
 10
-1253.224467626829
 20
111.4240686635753
 30
0.0
 11
-1243.246134293495
 21
111.4240686635753
 31
0.0
  0
LINE
  5
755
330
708
100
AcDbEntity
  8
寸法
  6
Continuous
 62
     1
440
 16777216
370
    -2
100
AcDbLine
 10
-1224.754467626829
 20
111.4240686635753
 30
0.0
 11
-1234.732800960162
 21
111.4240686635753
 31
0.0
  0
INSERT
  5
756
330
708
100
AcDbEntity
  8
寸法
  6
Continuous
 62
     1
440
 16777216
370
    -2
100
AcDbBlockReference
  2
_Open30
 10
-1263.224467626829
 20
111.4240686635753
 30
0.0
 41
10.0
 42
10.0
 43
10.0
 50
180.0
  0
INSERT
  5
757
330
708
100
AcDbEntity
  8
寸法
  6
Continuous
 62
     1
440
 16777216
370
    -2
100
AcDbBlockReference
  2
_Open30
 10
-1214.754467626829
 20
111.4240686635753
 30
0.0
 41
10.0
 42
10.0
 43
10.0
  0
MTEXT
  5
758
330
708
100
AcDbEntity
  8
寸法
  6
Continuous
 62
     7
440
 16777216
100
AcDbMText
 10
-1238.989467626829
 20
111.4240686635753
 30
0.0
 40
10.0
 41
0.0
 46
0.0
 71
     5
 72
     1
  1
\A1;{\H0.5x;48}
 73
     1
 44
1.0
  0
POINT
  5
759
330
708
100
AcDbEntity
  8
Defpoints
  6
Continuous
 62
     0
440
 16777216
100
AcDbPoint
 10
-1263.224467626829
 20
93.38522624496244
 30
0.0
  0
POINT
  5
75A
330
708
100
AcDbEntity
  8
Defpoints
  6
Continuous
 62
     0
440
 16777216
100
AcDbPoint
 10
-1214.754467626829
 20
93.38522624496244
 30
0.0
  0
POINT
  5
75B
330
708
100
AcDbEntity
  8
Defpoints
  6
Continuous
 62
     0
440
 16777216
100
AcDbPoint
 10
-1214.754467626829
 20
111.4240686635753
 30
0.0
  0
ENDBLK
  5
70A
330
708
100
AcDbEntity
  8
0
100
AcDbBlockEnd
  0
ENDSEC
  0
SECTION
  2
ENTITIES
  0
TEXT
  5
13E
330
A
100
AcDbEntity
  8
製肘
  6
Continuous
 62
     7
100
AcDbText
 10
-1393.0
 20
-73.0
 30
0.0
 40
6.0
  1
ローンマーカーＬＧＭ－０８
 41
1.288546255506608
  7
EXCADSTD
 72
     5
 11
-1276.0
 21
-73.0
 31
0.0
100
AcDbText
  0
INSERT
  5
49B
330
A
100
AcDbEntity
  8
寸法
  6
Continuous
100
AcDbBlockReference
  2
3
 10
-1289.119239224536
 20
33.96932941706513
 30
0.0
  0
LINE
  5
4B3
330
A
100
AcDbEntity
  8
製肘
  6
Continuous
100
AcDbLine
 10
-1377.856268637331
 20
-2.875513942556878
 30
0.0
 11
-1377.856268637331
 21
8.124486057443121
 31
0.0
  0
LINE
  5
4B4
330
A
100
AcDbEntity
  8
製肘
  6
Continuous
100
AcDbLine
 10
-1361.722120528479
 20
-2.875513942556878
 30
0.0
 11
-1361.722120528479
 21
8.124486057443121
 31
0.0
  0
LINE
  5
4B5
330
A
100
AcDbEntity
  8
製肘
  6
Continuous
100
AcDbLine
 10
-1315.298285295857
 20
-2.778934889240758
 30
0.0
 11
-1315.298285295857
 21
8.221065110759241
 31
0.0
  0
LINE
  5
4B6
330
A
100
AcDbEntity
  8
製肘
  6
Continuous
100
AcDbLine
 10
-1299.199310889647
 20
-2.875513942556878
 30
0.0
 11
-1299.199310889647
 21
8.124486057443121
 31
0.0
  0
LINE
  5
4B7
330
A
100
AcDbEntity
  8
製肘
  6
Continuous
100
AcDbLine
 10
-1277.452102023457
 20
8.032867868904446
 30
0.0
 11
-1278.202102023457
 21
8.032867868904446
 31
0.0
  0
LINE
  5
4B8
330
A
100
AcDbEntity
  8
製肘
  6
Continuous
100
AcDbLine
 10
-1277.452102023457
 20
-2.967132131095539
 30
0.0
 11
-1277.452102023457
 21
8.03286786890446
 31
0.0
  0
LINE
  5
4B9
330
A
100
AcDbEntity
  8
製肘
  6
Continuous
100
AcDbLine
 10
-1277.452102023457
 20
-2.967132131095539
 30
0.0
 11
-1278.202102023457
 21
-2.967132131095539
 31
0.0
  0
LINE
  5
4BA
330
A
100
AcDbEntity
  8
製肘
  6
Continuous
100
AcDbLine
 10
-1399.495439168633
 20
8.0345390310177
 30
0.0
 11
-1398.920369521672
 21
8.027994129393903
 31
0.0
  0
LINE
  5
4BB
330
A
100
AcDbEntity
  8
製肘
  6
Continuous
100
AcDbLine
 10
-1399.591431059115
 20
-2.965042122688174
 30
0.0
 11
-1399.495439168633
 21
8.0345390310177
 31
0.0
  0
LINE
  5
4BC
330
A
100
AcDbEntity
  8
製肘
  6
Continuous
100
AcDbLine
 10
-1399.591420103974
 20
-2.963786787882952
 30
0.0
 11
-1398.803853482674
 21
-2.970659777663456
 31
0.0
  0
DIMENSION
  5
4C4
330
A
100
AcDbEntity
  8
寸法
  6
Continuous
100
AcDbDimension
280
     0
  2
*D12
 10
-1277.297168177635
 20
111.4240686635753
 30
0.0
 11
-1338.397168177635
 21
111.4240686635753
 31
0.0
 70
    32
  1
{\H0.5x;<>}
 71
     5
 42
122.2
 73
     0
 74
     0
 75
     0
  3
大
100
AcDbAlignedDimension
 13
-1399.497168177635
 23
69.31932941706509
 33
0.0
 14
-1277.297168177635
 24
69.34332941706521
 34
0.0
100
AcDbRotatedDimension
  0
DIMENSION
  5
54B
330
A
100
AcDbEntity
  8
寸法
  6
Continuous
100
AcDbDimension
280
     0
  2
*D13
 10
-1420.138217282107
 20
33.21932941706519
 30
0.0
 11
-1420.138217282107
 21
63.25932941706494
 31
0.0
 70
    32
  1
{\H0.5x;<>}
 71
     5
 42
60.07999999999993
 73
     0
 74
     0
 75
     0
  3
大
100
AcDbAlignedDimension
 13
-1375.719168177635
 23
93.29932941706511
 33
0.0
 14
-1375.719168177635
 24
33.21932941706518
 34
0.0
 50
90.0
100
AcDbRotatedDimension
  0
LINE
  5
56E
330
A
100
AcDbEntity
  8
製肘
  6
Continuous
 62
     4
100
AcDbLine
 10
-1358.173983878737
 20
-2.875513942556878
 30
0.0
 11
-1381.403983878781
 21
-2.875513942556878
 31
0.0
  0
LINE
  5
56F
330
A
100
AcDbEntity
  8
製肘
  6
Continuous
 62
     4
100
AcDbLine
 10
-1393.541995863874
 20
17.35973454911271
 30
0.0
 11
-1393.66667168848
 21
13.78948605744312
 31
0.0
  0
ARC
  5
570
330
A
100
AcDbEntity
  8
製肘
  6
Continuous
 62
     4
100
AcDbCircle
 10
-1392.532611128584
 20
17.32448605744312
 30
0.0
 40
1.01
100
AcDbArc
 50
90.0
 51
177.9999999999963
  0
LINE
  5
571
330
A
100
AcDbEntity
  8
製肘
  6
Continuous
 62
     4
100
AcDbLine
 10
-1391.762930478518
 20
17.35973454911271
 30
0.0
 11
-1391.887606303124
 21
13.78948605744312
 31
0.0
  0
ARC
  5
572
330
A
100
AcDbEntity
  8
製肘
  6
Continuous
 62
     4
100
AcDbCircle
 10
-1390.753545743229
 20
17.32448605744312
 30
0.0
 40
1.01
100
AcDbArc
 50
90.0
 51
177.9999999999963
  0
LINE
  5
573
330
A
100
AcDbEntity
  8
製肘
  6
Continuous
 62
     4
100
AcDbLine
 10
-1389.261732274878
 20
17.35973454911271
 30
0.0
 11
-1389.386408099484
 21
13.78948605744312
 31
0.0
  0
ARC
  5
574
330
A
100
AcDbEntity
  8
製肘
  6
Continuous
 62
     4
100
AcDbCircle
 10
-1388.252347539589
 20
17.32448605744312
 30
0.0
 40
1.01
100
AcDbArc
 50
90.0
 51
177.9999999999963
  0
LINE
  5
575
330
A
100
AcDbEntity
  8
製肘
  6
Continuous
 62
     4
100
AcDbLine
 10
-1346.035971893644
 20
17.35973454911271
 30
0.0
 11
-1345.911296069038
 21
13.78948605744312
 31
0.0
  0
ARC
  5
576
330
A
100
AcDbEntity
  8
製肘
  6
Continuous
 62
     4
100
AcDbCircle
 10
-1347.045356628933
 20
17.32448605744312
 30
0.0
 40
1.01
100
AcDbArc
 50
2.000000000003654
 51
90.0
  0
LINE
  5
577
330
A
100
AcDbEntity
  8
製肘
  6
Continuous
 62
     4
100
AcDbLine
 10
-1347.815037279
 20
17.35973454911271
 30
0.0
 11
-1347.690361454394
 21
13.78948605744312
 31
0.0
  0
ARC
  5
578
330
A
100
AcDbEntity
  8
製肘
  6
Continuous
 62
     4
100
AcDbCircle
 10
-1348.824422014289
 20
17.32448605744312
 30
0.0
 40
1.01
100
AcDbArc
 50
2.000000000003654
 51
90.0
  0
LINE
  5
579
330
A
100
AcDbEntity
  8
製肘
  6
Continuous
 62
     4
100
AcDbLine
 10
-1350.31623548264
 20
17.35973454911271
 30
0.0
 11
-1350.191559658034
 21
13.78948605744312
 31
0.0
  0
ARC
  5
57A
330
A
100
AcDbEntity
  8
製肘
  6
Continuous
 62
     4
100
AcDbCircle
 10
-1351.325620217929
 20
17.32448605744312
 30
0.0
 40
1.01
100
AcDbArc
 50
2.000000000003654
 51
90.0
  0
LINE
  5
57B
330
A
100
AcDbEntity
  8
製肘
  6
Continuous
 62
     4
100
AcDbLine
 10
-1318.879983878781
 20
-2.875513942556878
 30
0.0
 11
-1295.649983878736
 21
-2.875513942556878
 31
0.0
  0
LINE
  5
57C
330
A
100
AcDbEntity
  8
製肘
  6
Continuous
 62
     4
100
AcDbLine
 10
-1283.511971893644
 20
17.35973454911271
 30
0.0
 11
-1283.387296069038
 21
13.78948605744312
 31
0.0
  0
ARC
  5
57D
330
A
100
AcDbEntity
  8
製肘
  6
Continuous
 62
     4
100
AcDbCircle
 10
-1284.521356628933
 20
17.32448605744312
 30
0.0
 40
1.01
100
AcDbArc
 50
2.000000000003654
 51
90.0
  0
LINE
  5
57E
330
A
100
AcDbEntity
  8
製肘
  6
Continuous
 62
     4
100
AcDbLine
 10
-1285.291037279
 20
17.35973454911271
 30
0.0
 11
-1285.166361454393
 21
13.78948605744312
 31
0.0
  0
ARC
  5
57F
330
A
100
AcDbEntity
  8
製肘
  6
Continuous
 62
     4
100
AcDbCircle
 10
-1286.300422014289
 20
17.32448605744312
 30
0.0
 40
1.01
100
AcDbArc
 50
2.000000000003654
 51
90.0
  0
LINE
  5
580
330
A
100
AcDbEntity
  8
製肘
  6
Continuous
 62
     4
100
AcDbLine
 10
-1287.79223548264
 20
17.35973454911271
 30
0.0
 11
-1287.667559658034
 21
13.78948605744312
 31
0.0
  0
ARC
  5
581
330
A
100
AcDbEntity
  8
製肘
  6
Continuous
 62
     4
100
AcDbCircle
 10
-1288.801620217929
 20
17.32448605744312
 30
0.0
 40
1.01
100
AcDbArc
 50
2.000000000003654
 51
90.0
  0
LINE
  5
582
330
A
100
AcDbEntity
  8
製肘
  6
Continuous
 62
     4
100
AcDbLine
 10
-1331.017995863874
 20
17.35973454911271
 30
0.0
 11
-1331.14267168848
 21
13.78948605744312
 31
0.0
  0
ARC
  5
583
330
A
100
AcDbEntity
  8
製肘
  6
Continuous
 62
     4
100
AcDbCircle
 10
-1330.008611128584
 20
17.32448605744312
 30
0.0
 40
1.01
100
AcDbArc
 50
90.0
 51
177.9999999999963
  0
LINE
  5
584
330
A
100
AcDbEntity
  8
製肘
  6
Continuous
 62
     4
100
AcDbLine
 10
-1329.238930478518
 20
17.35973454911271
 30
0.0
 11
-1329.363606303124
 21
13.78948605744312
 31
0.0
  0
ARC
  5
585
330
A
100
AcDbEntity
  8
製肘
  6
Continuous
 62
     4
100
AcDbCircle
 10
-1328.229545743228
 20
17.32448605744312
 30
0.0
 40
1.01
100
AcDbArc
 50
90.0
 51
177.9999999999963
  0
LINE
  5
586
330
A
100
AcDbEntity
  8
製肘
  6
Continuous
 62
     4
100
AcDbLine
 10
-1326.737732274878
 20
17.35973454911271
 30
0.0
 11
-1326.862408099484
 21
13.78948605744312
 31
0.0
  0
ARC
  5
587
330
A
100
AcDbEntity
  8
製肘
  6
Continuous
 62
     4
100
AcDbCircle
 10
-1325.728347539589
 20
17.32448605744312
 30
0.0
 40
1.01
100
AcDbArc
 50
90.0
 51
177.9999999999963
  0
LINE
  5
588
330
A
100
AcDbEntity
  8
製肘
  6
Continuous
 62
     4
100
AcDbLine
 10
-1388.000519028222
 20
3.184486057442995
 30
0.0
 11
-1388.000519028222
 21
13.78948605744301
 31
0.0
  0
LINE
  5
589
330
A
100
AcDbEntity
  8
製肘
  6
Continuous
 62
     4
100
AcDbLine
 10
-1393.494471953711
 20
3.184486057442995
 30
0.0
 11
-1393.679582917274
 21
13.78948605744301
 31
0.0
  0
LINE
  5
58A
330
A
100
AcDbEntity
  8
製肘
  6
Continuous
 62
     4
100
AcDbLine
 10
-1388.000519028222
 20
3.184486057442995
 30
0.0
 11
-1393.494471953711
 21
3.184486057442995
 31
0.0
  0
LINE
  5
58B
330
A
100
AcDbEntity
  8
製肘
  6
Continuous
 62
     4
100
AcDbLine
 10
-1351.577448729296
 20
3.184486057442995
 30
0.0
 11
-1351.577448729296
 21
13.78948605744301
 31
0.0
  0
LINE
  5
58C
330
A
100
AcDbEntity
  8
製肘
  6
Continuous
 62
     4
100
AcDbLine
 10
-1346.083495803807
 20
3.184486057442995
 30
0.0
 11
-1345.898384840244
 21
13.78948605744301
 31
0.0
  0
LINE
  5
58D
330
A
100
AcDbEntity
  8
製肘
  6
Continuous
 62
     4
100
AcDbLine
 10
-1351.577448729296
 20
3.184486057442995
 30
0.0
 11
-1346.083495803807
 21
3.184486057442995
 31
0.0
  0
LINE
  5
58E
330
A
100
AcDbEntity
  8
製肘
  6
Continuous
 62
     4
100
AcDbLine
 10
-1330.970471953711
 20
3.184486057442995
 30
0.0
 11
-1331.155582917274
 21
13.78948605744301
 31
0.0
  0
LINE
  5
58F
330
A
100
AcDbEntity
  8
製肘
  6
Continuous
 62
     4
100
AcDbLine
 10
-1325.476519028222
 20
3.184486057442995
 30
0.0
 11
-1325.476519028222
 21
13.78948605744301
 31
0.0
  0
LINE
  5
590
330
A
100
AcDbEntity
  8
製肘
  6
Continuous
 62
     4
100
AcDbLine
 10
-1325.476519028222
 20
3.184486057442995
 30
0.0
 11
-1330.970471953711
 21
3.184486057442995
 31
0.0
  0
LINE
  5
591
330
A
100
AcDbEntity
  8
製肘
  6
Continuous
 62
     4
100
AcDbLine
 10
-1289.053448729296
 20
3.184486057442995
 30
0.0
 11
-1289.053448729296
 21
13.78948605744301
 31
0.0
  0
LINE
  5
592
330
A
100
AcDbEntity
  8
製肘
  6
Continuous
 62
     4
100
AcDbLine
 10
-1289.053448729296
 20
3.184486057442995
 30
0.0
 11
-1283.559495803807
 21
3.184486057442995
 31
0.0
  0
LINE
  5
593
330
A
100
AcDbEntity
  8
製肘
  6
Continuous
 62
     4
100
AcDbLine
 10
-1283.559495803807
 20
3.184486057442995
 30
0.0
 11
-1283.374384840243
 21
13.78948605744301
 31
0.0
  0
LINE
  5
594
330
A
100
AcDbEntity
  8
製肘
  6
Continuous
 62
     4
100
AcDbLine
 10
-1340.534239753389
 20
7.729486057443111
 30
0.0
 11
-1338.276983878759
 21
7.729486057443111
 31
0.0
  0
LINE
  5
595
330
A
100
AcDbEntity
  8
製肘
  6
Continuous
 62
     4
100
AcDbLine
 10
-1338.776983878759
 20
7.729486057443111
 30
0.0
 11
-1336.519728004129
 21
7.729486057443111
 31
0.0
  0
LINE
  5
596
330
A
100
AcDbEntity
  8
製肘
  6
Continuous
 62
     4
100
AcDbLine
 10
-1394.928765573672
 20
13.78948605744312
 30
0.0
 11
-1394.928765573671
 21
-13.75494634357117
 31
0.0
  0
LINE
  5
597
330
A
100
AcDbEntity
  8
製肘
  6
Continuous
 62
     4
100
AcDbLine
 10
-1381.518565471312
 20
-30.13551394255689
 30
0.0
 11
-1381.451454659056
 21
-13.75494634357119
 31
0.0
  0
LINE
  5
598
330
A
100
AcDbEntity
  8
製肘
  6
Continuous
 62
     4
100
AcDbLine
 10
-1358.059402286206
 20
-30.13551394255689
 30
0.0
 11
-1358.126513098462
 21
-13.75494634357119
 31
0.0
  0
LINE
  5
599
330
A
100
AcDbEntity
  8
製肘
  6
Continuous
 62
     4
100
AcDbLine
 10
-1340.695094681394
 20
-30.13551394255689
 30
0.0
 11
-1340.627983869138
 21
-13.75494634357119
 31
0.0
  0
LINE
  5
59A
330
A
100
AcDbEntity
  8
製肘
  6
Continuous
 62
     4
100
AcDbLine
 10
-1336.358873076124
 20
-30.13551394255689
 30
0.0
 11
-1336.42598388838
 21
-13.75494634357119
 31
0.0
  0
LINE
  5
59B
330
A
100
AcDbEntity
  8
製肘
  6
Continuous
 62
     4
100
AcDbLine
 10
-1318.994565471312
 20
-30.13551394255689
 30
0.0
 11
-1318.927454659056
 21
-13.75494634357119
 31
0.0
  0
LINE
  5
59C
330
A
100
AcDbEntity
  8
製肘
  6
Continuous
 62
     4
100
AcDbLine
 10
-1295.535402286206
 20
-30.13551394255689
 30
0.0
 11
-1295.602516376444
 21
-13.75419509014607
 31
0.0
  0
LINE
  5
59D
330
A
100
AcDbEntity
  8
製肘
  6
Continuous
 62
     4
100
AcDbLine
 10
-1282.125202183846
 20
13.78948605744312
 30
0.0
 11
-1282.125202183846
 21
-13.75494634357117
 31
0.0
  0
LINE
  5
59E
330
A
100
AcDbEntity
  8
製肘
  6
Continuous
 62
     4
100
AcDbLine
 10
-1336.358873076124
 20
-30.13551394255689
 30
0.0
 11
-1318.994565471312
 21
-30.13551394255689
 31
0.0
  0
LINE
  5
59F
330
A
100
AcDbEntity
  8
製肘
  6
Continuous
 62
     4
100
AcDbLine
 10
-1358.059402286206
 20
-30.13551394255689
 30
0.0
 11
-1340.695094681394
 21
-30.13551394255689
 31
0.0
  0
LINE
  5
5A0
330
A
100
AcDbEntity
  8
製肘
  6
Continuous
 62
     4
100
AcDbLine
 10
-1398.752308054153
 20
17.35973454911271
 30
0.0
 11
-1398.876983878759
 21
13.78948605744312
 31
0.0
  0
ARC
  5
5A1
330
A
100
AcDbEntity
  8
製肘
  6
Continuous
 62
     4
100
AcDbCircle
 10
-1397.742923318863
 20
17.32448605744312
 30
0.0
 40
1.01
100
AcDbArc
 50
90.0
 51
177.9999999999963
  0
LINE
  5
5A2
330
A
100
AcDbEntity
  8
製肘
  6
Continuous
 62
     4
100
AcDbLine
 10
-1398.68968704478
 20
-30.13551394255689
 30
0.0
 11
-1398.740428029609
 21
-18.5066106261399
 31
0.0
  0
LINE
  5
5A3
330
A
100
AcDbEntity
  8
製肘
  6
Continuous
 62
     4
100
AcDbLine
 10
-1278.301659703365
 20
17.35973454911271
 30
0.0
 11
-1278.176983878759
 21
13.78948605744312
 31
0.0
  0
ARC
  5
5A4
330
A
100
AcDbEntity
  8
製肘
  6
Continuous
 62
     4
100
AcDbCircle
 10
-1279.311044438655
 20
17.32448605744312
 30
0.0
 40
1.01
100
AcDbArc
 50
2.000000000003654
 51
90.0
  0
LINE
  5
5A5
330
A
100
AcDbEntity
  8
製肘
  6
Continuous
 62
     4
100
AcDbLine
 10
-1278.364280712738
 20
-30.13551394255689
 30
0.0
 11
-1278.295268316808
 21
-13.31913823377302
 31
0.0
  0
LINE
  5
5A6
330
A
100
AcDbEntity
  8
製肘
  6
Continuous
 62
     4
100
AcDbLine
 10
-1398.68968704478
 20
-30.13551394255689
 30
0.0
 11
-1381.518565471312
 21
-30.13551394255689
 31
0.0
  0
LINE
  5
5A7
330
A
100
AcDbEntity
  8
製肘
  6
Continuous
 62
     4
100
AcDbLine
 10
-1397.742923318864
 20
18.33448605744311
 30
0.0
 11
-1338.276983878759
 21
18.33448605744311
 31
0.0
  0
LINE
  5
5A8
330
A
100
AcDbEntity
  8
製肘
  6
Continuous
 62
     4
100
AcDbLine
 10
-1338.776983878759
 20
18.33448605744311
 30
0.0
 11
-1279.311044438654
 21
18.33448605744311
 31
0.0
  0
LINE
  5
5A9
330
A
100
AcDbEntity
  8
製肘
  6
Continuous
 62
     4
100
AcDbLine
 10
-1398.876983878759
 20
13.78948605744312
 30
0.0
 11
-1338.276983878759
 21
13.78948605744312
 31
0.0
  0
LINE
  5
5AA
330
A
100
AcDbEntity
  8
製肘
  6
Continuous
 62
     4
100
AcDbLine
 10
-1338.776983878759
 20
13.78948605744312
 30
0.0
 11
-1278.176983878759
 21
13.78948605744312
 31
0.0
  0
LINE
  5
5AB
330
A
100
AcDbEntity
  8
製肘
  6
Continuous
 62
     4
100
AcDbLine
 10
-1295.535402286206
 20
-30.13551394255689
 30
0.0
 11
-1278.364280712738
 21
-30.13551394255689
 31
0.0
  0
LINE
  5
5AC
330
A
100
AcDbEntity
  8
製肘
  6
Continuous
 62
     4
100
AcDbLine
 10
-1383.74168704478
 20
-30.13551394255689
 30
0.0
 11
-1383.808797857035
 21
-13.75494634357117
 31
0.0
  0
LINE
  5
5AD
330
A
100
AcDbEntity
  8
製肘
  6
Continuous
 62
     4
100
AcDbLine
 10
-1355.836280712739
 20
-30.13551394255689
 30
0.0
 11
-1355.769169900483
 21
-13.75494634357119
 31
0.0
  0
LINE
  5
5AE
330
A
100
AcDbEntity
  8
製肘
  6
Continuous
 62
     4
100
AcDbLine
 10
-1321.217687044779
 20
-30.13551394255689
 30
0.0
 11
-1321.284797857035
 21
-13.75494634357119
 31
0.0
  0
LINE
  5
5AF
330
A
100
AcDbEntity
  8
製肘
  6
Continuous
 62
     4
100
AcDbLine
 10
-1293.312280712739
 20
-30.13551394255689
 30
0.0
 11
-1293.245169900482
 21
-13.75494634357119
 31
0.0
  0
LINE
  5
5B0
330
A
100
AcDbEntity
  8
製肘
  6
Continuous
 62
     4
100
AcDbLine
 10
-1398.756797857036
 20
-13.75494634357119
 30
0.0
 11
-1398.876983878759
 21
13.78948605744301
 31
0.0
  0
LINE
  5
5B1
330
A
100
AcDbEntity
  8
製肘
  6
Continuous
 62
     4
100
AcDbLine
 10
-1394.928765573671
 20
-13.75494634357117
 30
0.0
 11
-1394.928765573672
 21
-30.13551394255689
 31
0.0
  0
LINE
  5
5B2
330
A
100
AcDbEntity
  8
製肘
  6
Continuous
 62
     4
100
AcDbLine
 10
-1381.451454659056
 20
-13.75494634357119
 30
0.0
 11
-1381.40398387876
 21
-2.875513942557006
 31
0.0
  0
LINE
  5
5B3
330
A
100
AcDbEntity
  8
製肘
  6
Continuous
 62
     4
100
AcDbLine
 10
-1358.126513098462
 20
-13.75494634357119
 30
0.0
 11
-1358.173983878758
 21
-2.875513942557006
 31
0.0
  0
LINE
  5
5B4
330
A
100
AcDbEntity
  8
製肘
  6
Continuous
 62
     4
100
AcDbLine
 10
-1340.627983869138
 20
-13.75494634357119
 30
0.0
 11
-1340.507797847416
 21
13.78948605744312
 31
0.0
  0
LINE
  5
5B5
330
A
100
AcDbEntity
  8
製肘
  6
Continuous
 62
     4
100
AcDbLine
 10
-1336.42598388838
 20
-13.75494634357119
 30
0.0
 11
-1336.546169910102
 21
13.78948605744312
 31
0.0
  0
LINE
  5
5B6
330
A
100
AcDbEntity
  8
製肘
  6
Continuous
 62
     4
100
AcDbLine
 10
-1398.740501620692
 20
-18.4897448994012
 30
0.0
 11
-1398.756797857036
 21
-13.75494634357119
 31
0.0
  0
LINE
  5
5B7
330
A
100
AcDbEntity
  8
製肘
  6
Continuous
 62
     4
100
AcDbLine
 10
-1383.808797857035
 20
-13.75494634357117
 30
0.0
 11
-1383.928983878758
 21
13.78948605744404
 31
0.0
  0
LINE
  5
5B8
330
A
100
AcDbEntity
  8
製肘
  6
Continuous
 62
     4
100
AcDbLine
 10
-1355.769169900483
 20
-13.75494634357119
 30
0.0
 11
-1355.64898387876
 21
13.78948605744404
 31
0.0
  0
LINE
  5
5B9
330
A
100
AcDbEntity
  8
製肘
  6
Continuous
 62
     4
100
AcDbLine
 10
-1321.284797857035
 20
-13.75494634357119
 30
0.0
 11
-1321.404983878758
 21
13.78948605744404
 31
0.0
  0
LINE
  5
5BA
330
A
100
AcDbEntity
  8
製肘
  6
Continuous
 62
     4
100
AcDbLine
 10
-1318.927454659056
 20
-13.75494634357119
 30
0.0
 11
-1318.87998387876
 21
-2.875513942557006
 31
0.0
  0
LINE
  5
5BB
330
A
100
AcDbEntity
  8
製肘
  6
Continuous
 62
     4
100
AcDbLine
 10
-1295.602516376444
 20
-13.75419509014607
 30
0.0
 11
-1295.649983878758
 21
-2.875513942557006
 31
0.0
  0
LINE
  5
5BC
330
A
100
AcDbEntity
  8
製肘
  6
Continuous
 62
     4
100
AcDbLine
 10
-1293.245169900482
 20
-13.75494634357119
 30
0.0
 11
-1293.12498387876
 21
13.78948605744404
 31
0.0
  0
LINE
  5
5BD
330
A
100
AcDbEntity
  8
製肘
  6
Continuous
 62
     4
100
AcDbLine
 10
-1278.29716251179
 20
-13.7532529910119
 30
0.0
 11
-1278.176983878759
 21
13.78948605744301
 31
0.0
  0
LINE
  5
5BE
330
A
100
AcDbEntity
  8
製肘
  6
Continuous
 62
     4
100
AcDbLine
 10
-1282.125202183846
 20
-13.75494634357117
 30
0.0
 11
-1282.125202183846
 21
-30.13551394255689
 31
0.0
  0
DIMENSION
  5
5BF
330
A
100
AcDbEntity
  8
寸法
  6
Continuous
100
AcDbDimension
280
     0
  2
*D14
 10
-1420.138217282107
 20
-30.13551394255688
 30
0.0
 11
-1420.138217282107
 21
-5.900513942557106
 31
0.0
 70
    32
  1
{\H0.5x;<>}
 71
     5
 42
48.47
 73
     0
 74
     0
 75
     0
  3
大
100
AcDbAlignedDimension
 13
-1397.742923318864
 23
18.33448605744311
 33
0.0
 14
-1397.742923318864
 24
-30.13551394255689
 34
0.0
 50
90.0
100
AcDbRotatedDimension
  0
LINE
  5
6A8
330
A
100
AcDbEntity
  8
製肘
  6
Continuous
 62
     4
100
AcDbLine
 10
-1258.679467626829
 20
35.93928680485812
 30
0.0
 11
-1258.679467626829
 21
94.51928680485812
 31
0.0
  0
LINE
  5
6A9
330
A
100
AcDbEntity
  8
製肘
  6
Continuous
 62
     4
100
AcDbLine
 10
-1242.014467626829
 20
53.61428680483584
 30
0.0
 11
-1242.014467626829
 21
76.84428680488039
 31
0.0
  0
LINE
  5
6AA
330
A
100
AcDbEntity
  8
製肘
  6
Continuous
 62
     4
100
AcDbLine
 10
-1262.249716118499
 20
94.39461098025168
 30
0.0
 11
-1258.679467626829
 21
94.51928680485778
 31
0.0
  0
ARC
  5
6AB
330
A
100
AcDbEntity
  8
製肘
  6
Continuous
 62
     4
100
AcDbCircle
 10
-1262.214467626829
 20
93.38522624496244
 30
0.0
 40
1.01
100
AcDbArc
 50
92.00000000000365
 51
180.0
  0
LINE
  5
6AC
330
A
100
AcDbEntity
  8
製肘
  6
Continuous
 62
     4
100
AcDbLine
 10
-1263.224467626829
 20
37.07334736475379
 30
0.0
 11
-1263.224467626829
 21
93.38522624496244
 31
0.0
  0
LINE
  5
6AD
330
A
100
AcDbEntity
  8
製肘
  6
Continuous
 62
     4
100
AcDbLine
 10
-1262.249716118499
 20
36.06396262946454
 30
0.0
 11
-1258.679467626829
 21
35.93928680485847
 31
0.0
  0
ARC
  5
6AE
330
A
100
AcDbEntity
  8
製肘
  6
Continuous
 62
     4
100
AcDbCircle
 10
-1262.214467626829
 20
37.07334736475379
 30
0.0
 40
1.01
100
AcDbArc
 50
180.0
 51
267.9999999999964
  0
LINE
  5
6AF
330
A
100
AcDbEntity
  8
製肘
  6
Continuous
 62
     4
100
AcDbLine
 10
-1262.249716118499
 20
88.98229878997307
 30
0.0
 11
-1258.679467626829
 21
89.10697461457914
 31
0.0
  0
ARC
  5
6B0
330
A
100
AcDbEntity
  8
製肘
  6
Continuous
 62
     4
100
AcDbCircle
 10
-1262.214467626829
 20
87.97291405468369
 30
0.0
 40
1.01
100
AcDbArc
 50
92.00000000000365
 51
180.0
  0
LINE
  5
6B1
330
A
100
AcDbEntity
  8
製肘
  6
Continuous
 62
     4
100
AcDbLine
 10
-1262.249716118499
 20
87.20323340461709
 30
0.0
 11
-1258.679467626829
 21
87.32790922922317
 31
0.0
  0
ARC
  5
6B2
330
A
100
AcDbEntity
  8
製肘
  6
Continuous
 62
     4
100
AcDbCircle
 10
-1262.214467626829
 20
86.19384866932785
 30
0.0
 40
1.01
100
AcDbArc
 50
92.00000000000365
 51
180.0
  0
LINE
  5
6B3
330
A
100
AcDbEntity
  8
製肘
  6
Continuous
 62
     4
100
AcDbLine
 10
-1262.249716118499
 20
84.70203520097726
 30
0.0
 11
-1258.679467626829
 21
84.82671102558335
 31
0.0
  0
ARC
  5
6B4
330
A
100
AcDbEntity
  8
製肘
  6
Continuous
 62
     4
100
AcDbCircle
 10
-1262.214467626829
 20
83.6926504656879
 30
0.0
 40
1.01
100
AcDbArc
 50
92.00000000000365
 51
180.0
  0
LINE
  5
6B5
330
A
100
AcDbEntity
  8
製肘
  6
Continuous
 62
     4
100
AcDbLine
 10
-1262.249716118499
 20
41.47627481974318
 30
0.0
 11
-1258.679467626829
 21
41.35159899513709
 31
0.0
  0
ARC
  5
6B6
330
A
100
AcDbEntity
  8
製肘
  6
Continuous
 62
     4
100
AcDbCircle
 10
-1262.214467626829
 20
42.48565955503254
 30
0.0
 40
1.01
100
AcDbArc
 50
180.0
 51
267.9999999999964
  0
LINE
  5
6B7
330
A
100
AcDbEntity
  8
製肘
  6
Continuous
 62
     4
100
AcDbLine
 10
-1262.249716118499
 20
43.25534020509914
 30
0.0
 11
-1258.679467626829
 21
43.13066438049306
 31
0.0
  0
ARC
  5
6B8
330
A
100
AcDbEntity
  8
製肘
  6
Continuous
 62
     4
100
AcDbCircle
 10
-1262.214467626829
 20
44.26472494038839
 30
0.0
 40
1.01
100
AcDbArc
 50
180.0
 51
267.9999999999964
  0
LINE
  5
6B9
330
A
100
AcDbEntity
  8
製肘
  6
Continuous
 62
     4
100
AcDbLine
 10
-1262.249716118499
 20
45.7565384087389
 30
0.0
 11
-1258.679467626829
 21
45.63186258413283
 31
0.0
  0
ARC
  5
6BA
330
A
100
AcDbEntity
  8
製肘
  6
Continuous
 62
     4
100
AcDbCircle
 10
-1262.214467626829
 20
46.76592314402827
 30
0.0
 40
1.01
100
AcDbArc
 50
180.0
 51
267.9999999999964
  0
LINE
  5
6BB
330
A
100
AcDbEntity
  8
製肘
  6
Continuous
 62
     4
100
AcDbLine
 10
-1248.074467626829
 20
83.44082195432072
 30
0.0
 11
-1258.679467626829
 21
83.44082195432072
 31
0.0
  0
LINE
  5
6BC
330
A
100
AcDbEntity
  8
製肘
  6
Continuous
 62
     4
100
AcDbLine
 10
-1248.074467626829
 20
88.93477487980986
 30
0.0
 11
-1258.679467626829
 21
89.11988584337331
 31
0.0
  0
LINE
  5
6BD
330
A
100
AcDbEntity
  8
製肘
  6
Continuous
 62
     4
100
AcDbLine
 10
-1248.074467626829
 20
83.44082195432072
 30
0.0
 11
-1248.074467626829
 21
88.93477487980986
 31
0.0
  0
LINE
  5
6BE
330
A
100
AcDbEntity
  8
製肘
  6
Continuous
 62
     4
100
AcDbLine
 10
-1248.074467626829
 20
47.01775165539551
 30
0.0
 11
-1258.679467626829
 21
47.01775165539551
 31
0.0
  0
LINE
  5
6BF
330
A
100
AcDbEntity
  8
製肘
  6
Continuous
 62
     4
100
AcDbLine
 10
-1248.074467626829
 20
41.52379872990633
 30
0.0
 11
-1258.679467626829
 21
41.33868776634287
 31
0.0
  0
LINE
  5
6C0
330
A
100
AcDbEntity
  8
製肘
  6
Continuous
 62
     4
100
AcDbLine
 10
-1248.074467626829
 20
47.01775165539551
 30
0.0
 11
-1248.074467626829
 21
41.52379872990633
 31
0.0
  0
LINE
  5
6C1
330
A
100
AcDbEntity
  8
製肘
  6
Continuous
 62
     4
100
AcDbLine
 10
-1214.754467626829
 20
94.33198997088032
 30
0.0
 11
-1223.432525913854
 21
94.36985538362909
 31
0.0
  0
LINE
  5
6C2
330
A
100
AcDbEntity
  8
製肘
  6
Continuous
 62
     4
100
AcDbLine
 10
-1214.754467626829
 20
90.36906849976061
 30
0.0
 11
-1223.433059433434
 21
90.36906849976059
 31
0.0
  0
LINE
  5
6C3
330
A
100
AcDbEntity
  8
製肘
  6
Continuous
 62
     4
100
AcDbLine
 10
-1214.754467626829
 20
76.95886839743351
 30
0.0
 11
-1223.433059433434
 21
76.92100065675169
 31
0.0
  0
LINE
  5
6C4
330
A
100
AcDbEntity
  8
製肘
  6
Continuous
 62
     4
100
AcDbLine
 10
-1214.754467626829
 20
53.49970521228266
 30
0.0
 11
-1223.432169848132
 21
53.53756907139175
 31
0.0
  0
LINE
  5
6C5
330
A
100
AcDbEntity
  8
製肘
  6
Continuous
 62
     4
100
AcDbLine
 10
-1214.754467626829
 20
40.08950510995565
 30
0.0
 11
-1223.433059433434
 21
40.08950510995565
 31
0.0
  0
LINE
  5
6C6
330
A
100
AcDbEntity
  8
製肘
  6
Continuous
 62
     4
100
AcDbLine
 10
-1214.754467626829
 20
36.1265836388359
 30
0.0
 11
-1223.433822760662
 21
36.08871256748955
 31
0.0
  0
LINE
  5
6C7
330
A
100
AcDbEntity
  8
製肘
  6
Continuous
 62
     4
100
AcDbLine
 10
-1214.754467626829
 20
76.95886839743351
 30
0.0
 11
-1214.754467626829
 21
94.33198997088032
 31
0.0
  0
LINE
  5
6C8
330
A
100
AcDbEntity
  8
製肘
  6
Continuous
 62
     4
100
AcDbLine
 10
-1214.754467626829
 20
36.12658363883584
 30
0.0
 11
-1214.754467626829
 21
53.49970521228266
 31
0.0
  0
LINE
  5
6C9
330
A
100
AcDbEntity
  8
製肘
  6
Continuous
 62
     4
100
AcDbLine
 10
-1214.754467626829
 20
79.18198997087845
 30
0.0
 11
-1223.433059433434
 21
79.21985771156028
 31
0.0
  0
LINE
  5
6CA
330
A
100
AcDbEntity
  8
製肘
  6
Continuous
 62
     4
100
AcDbLine
 10
-1214.754467626829
 20
51.27658363883779
 30
0.0
 11
-1223.433419463369
 21
51.23871432721904
 31
0.0
  0
LINE
  5
6CB
330
A
100
AcDbEntity
  8
製肘
  6
Continuous
 62
     4
100
AcDbLine
 10
-1223.432525913854
 20
94.36985538362909
 30
0.0
 11
-1258.679467626829
 21
94.51928680485881
 31
0.0
  0
LINE
  5
6CC
330
A
100
AcDbEntity
  8
製肘
  6
Continuous
 62
     4
100
AcDbLine
 10
-1223.433059433434
 20
90.36906849976059
 30
0.0
 11
-1258.679467626829
 21
90.36906849976061
 31
0.0
  0
LINE
  5
6CD
330
A
100
AcDbEntity
  8
製肘
  6
Continuous
 62
     4
100
AcDbLine
 10
-1223.433059433434
 20
79.21985771156028
 30
0.0
 11
-1258.67946762683
 21
79.36928680485685
 31
0.0
  0
LINE
  5
6CE
330
A
100
AcDbEntity
  8
製肘
  6
Continuous
 62
     4
100
AcDbLine
 10
-1223.433059433434
 20
76.92100065675169
 30
0.0
 11
-1242.014467626829
 21
76.844286804882
 31
0.0
  0
LINE
  5
6CF
330
A
100
AcDbEntity
  8
製肘
  6
Continuous
 62
     4
100
AcDbLine
 10
-1222.120788127692
 20
53.53184705288562
 30
0.0
 11
-1242.014467626829
 21
53.61428680483412
 31
0.0
  0
LINE
  5
6D0
330
A
100
AcDbEntity
  8
製肘
  6
Continuous
 62
     4
100
AcDbLine
 10
-1221.520822873105
 20
40.08950510995565
 30
0.0
 11
-1258.679467626829
 21
40.08950510995565
 31
0.0
  0
LINE
  5
6D1
330
A
100
AcDbEntity
  8
製肘
  6
Continuous
 62
     4
100
AcDbLine
 10
-1220.680523265636
 20
36.10072617910081
 30
0.0
 11
-1258.679467626829
 21
35.93928680485743
 31
0.0
  0
LINE
  5
6D2
330
A
100
AcDbEntity
  8
製肘
  6
Continuous
 62
     4
100
AcDbLine
 10
-1223.433419463369
 20
51.23871432721904
 30
0.0
 11
-1258.67946762683
 21
51.08928680485938
 31
0.0
  0
DIMENSION
  5
707
330
A
100
AcDbEntity
  8
寸法
  6
Continuous
100
AcDbDimension
280
     0
  2
*D16
 10
-1214.754467626829
 20
111.4240686635753
 30
0.0
 11
-1238.989467626829
 21
111.4240686635753
 31
0.0
 70
    32
  1
{\H0.5x;<>}
 71
     5
 42
48.47000000000003
 73
     0
 74
     0
 75
     0
  3
大
100
AcDbAlignedDimension
 13
-1263.224467626829
 23
93.38522624496244
 33
0.0
 14
-1214.754467626829
 24
93.38522624496244
 34
0.0
100
AcDbRotatedDimension
  0
VIEWPORT
  5
27F
102
{ACAD_XDICTIONARY
360
280
102
}
330
B
100
AcDbEntity
 67
     1
  8
0
  6
Continuous
100
AcDbViewport
 10
62.53577167006915
 20
22.32377762200842
 30
0.0
 40
157.5499196665231
 41
77.05545184235816
 68
     1
 69
     1
 12
62.53577167006915
 22
22.32377762200842
 13
0.0
 23
0.0
 14
10.0
 24
10.0
 15
10.0
 25
10.0
 16
0.0
 26
0.0
 36
1.0
 17
0.0
 27
0.0
 37
0.0
 42
50.0
 43
0.0
 44
0.0
 45
77.05545184235816
 50
0.0
 51
0.0
 72
   100
 90
   557088
  1

281
     0
 71
     1
 74
     0
110
0.0
120
0.0
130
0.0
111
1.0
121
0.0
131
0.0
112
0.0
122
1.0
132
0.0
 79
     0
146
0.0
170
     0
 61
     5
348
184
292
     1
282
     1
141
0.0
142
0.0
 63
   250
421
  3355443
  0
VIEWPORT
  5
284
102
{ACAD_XDICTIONARY
360
285
102
}
330
B
100
AcDbEntity
 67
     1
  8
製肘
  6
Continuous
100
AcDbViewport
 10
5.647083192359744
 20
3.935416843008807
 30
0.0
 40
9.035333107775592
 41
6.296666948814092
 68
     2
 69
     2
 12
-1336.772854424099
 22
46.29618754827901
 13
0.0
 23
0.0
 14
10.0
 24
10.0
 15
10.0
 25
10.0
 16
0.0
 26
0.0
 36
1.0
 17
0.0
 27
0.0
 37
0.0
 42
50.0
 43
0.0
 44
0.0
 45
256.8157651042827
 50
0.0
 51
0.0
 72
   100
 90
   557088
  1

281
     0
 71
     1
 74
     0
110
0.0
120
0.0
130
0.0
111
1.0
121
0.0
131
0.0
112
0.0
122
1.0
132
0.0
 79
     0
146
0.0
170
     0
 61
     5
348
184
292
     1
282
     1
141
0.0
142
0.0
 63
   250
421
  3355443
  0
ENDSEC
  0
SECTION
  2
OBJECTS
  0
DICTIONARY
  5
19
330
0
100
AcDbDictionary
281
     1
  3
ACAD_CIP_PREVIOUS_PRODUCT_INFO
350
1BA
  3
ACAD_COLOR
350
197
  3
ACAD_DETAILVIEWSTYLE
350
1B1
  3
ACAD_GROUP
350
1A
  3
ACAD_LAYOUT
350
1B3
  3
ACAD_MATERIAL
350
165
  3
ACAD_MLEADERSTYLE
350
1AC
  3
ACAD_MLINESTYLE
350
1B
  3
ACAD_PLOTSETTINGS
350
1B4
  3
ACAD_PLOTSTYLENAME
350
163
  3
ACAD_SCALELIST
350
19A
  3
ACAD_SECTIONVIEWSTYLE
350
1AE
  3
ACAD_TABLESTYLE
350
198
  3
ACAD_VISUALSTYLE
350
17E
  3
ACDB_RECOMPOSE_DATA
350
76D
  3
AcDbVariableDictionary
350
1CB
  0
DICTIONARY
  5
1C4
330
2
100
AcDbDictionary
280
     1
281
     1
  3
ACAD_LAYERSTATES
360
1C5
  0
DICTIONARY
  5
1BB
330
14
100
AcDbDictionary
280
     1
281
     1
  3
ADSK_XREC_LAYER_RECONCILED
360
1BC
  0
DICTIONARY
  5
1BD
330
25
100
AcDbDictionary
280
     1
281
     1
  3
ADSK_XREC_LAYER_RECONCILED
360
1BE
  0
DICTIONARY
  5
1BF
330
26
100
AcDbDictionary
280
     1
281
     1
  3
ADSK_XREC_LAYER_RECONCILED
360
1C0
  0
DICTIONARY
  5
385
330
A
100
AcDbDictionary
280
     1
281
     1
  3
ACAD_SORTENTS
360
386
  0
DICTIONARY
  5
280
330
27F
100
AcDbDictionary
280
     1
281
     1
  3
ASDK_XREC_ANNOTATION_SCALE_INFO
360
281
  0
DICTIONARY
  5
285
330
284
100
AcDbDictionary
280
     1
281
     1
  3
ASDK_XREC_ANNOTATION_SCALE_INFO
360
286
  0
XRECORD
  5
1BA
102
{ACAD_REACTORS
330
19
102
}
330
19
100
AcDbXrecord
280
     1
300
ACDLT
300
2013
300
ACDLT_F_S
  0
DICTIONARY
  5
197
102
{ACAD_REACTORS
330
19
102
}
330
19
100
AcDbDictionary
281
     1
  0
DICTIONARY
  5
1B1
102
{ACAD_REACTORS
330
19
102
}
330
19
100
AcDbDictionary
281
     1
  3
Imperial24
350
1B2
  0
DICTIONARY
  5
1A
102
{ACAD_REACTORS
330
19
102
}
330
19
100
AcDbDictionary
281
     1
  0
DICTIONARY
  5
1B3
102
{ACAD_REACTORS
330
19
102
}
330
19
100
AcDbDictionary
281
     1
  3
Model
350
1B5
  3
レイアウト1
350
1B6
  0
DICTIONARY
  5
165
102
{ACAD_REACTORS
330
19
102
}
330
19
100
AcDbDictionary
281
     1
  3
ByBlock
350
16E
  3
ByLayer
350
166
  3
Global
350
176
  0
DICTIONARY
  5
1AC
102
{ACAD_REACTORS
330
19
102
}
330
19
100
AcDbDictionary
281
     1
  3
Standard
350
1AD
  0
DICTIONARY
  5
1B
102
{ACAD_REACTORS
330
19
102
}
330
19
100
AcDbDictionary
281
     1
  3
STANDARD
350
1C
  0
DICTIONARY
  5
1B4
102
{ACAD_REACTORS
330
19
102
}
330
19
100
AcDbDictionary
281
     1
  0
ACDBDICTIONARYWDFLT
  5
163
102
{ACAD_REACTORS
330
19
102
}
330
19
100
AcDbDictionary
281
     1
  3
Normal
350
164
100
AcDbDictionaryWithDefault
340
164
  0
DICTIONARY
  5
19A
102
{ACAD_REACTORS
330
19
102
}
330
19
100
AcDbDictionary
281
     1
  3
A0
350
19B
  3
A1
350
19C
  3
A2
350
19D
  3
A3
350
19E
  3
A4
350
19F
  3
A5
350
1A0
  3
A6
350
1A1
  3
A7
350
1A2
  3
A8
350
1A3
  3
A9
350
1A4
  3
B0
350
1A5
  3
B1
350
1A6
  3
B2
350
1A7
  3
B3
350
1A8
  3
B4
350
1A9
  3
B5
350
1AA
  3
B6
350
1AB
  0
DICTIONARY
  5
1AE
102
{ACAD_REACTORS
330
19
102
}
330
19
100
AcDbDictionary
281
     1
  3
Imperial24
350
1B0
  0
DICTIONARY
  5
198
102
{ACAD_REACTORS
330
19
102
}
330
19
100
AcDbDictionary
281
     1
  3
Standard
350
199
  0
DICTIONARY
  5
17E
102
{ACAD_REACTORS
330
19
102
}
330
19
100
AcDbDictionary
281
     1
  3
2dWireframe
350
184
  3
Basic
350
183
  3
Brighten
350
18A
  3
ColorChange
350
18E
  3
Conceptual
350
187
  3
Dim
350
189
  3
EdgeColorOff
350
196
  3
Facepattern
350
18D
  3
Flat
350
17F
  3
FlatWithEdges
350
180
  3
Gouraud
350
181
  3
GouraudWithEdges
350
182
  3
Hidden
350
186
  3
JitterOff
350
194
  3
Linepattern
350
18C
  3
OverhangOff
350
195
  3
Realistic
350
188
  3
Shaded
350
193
  3
Shaded with edges
350
192
  3
Shades of Gray
350
18F
  3
Sketchy
350
190
  3
Thicken
350
18B
  3
Wireframe
350
185
  3
X-Ray
350
191
  0
XRECORD
  5
76D
102
{ACAD_REACTORS
330
19
102
}
330
19
100
AcDbXrecord
280
     1
 90
        1
330
199
  0
DICTIONARY
  5
1CB
102
{ACAD_REACTORS
330
19
102
}
330
19
100
AcDbDictionary
281
     1
  3
CANNOSCALE
350
1D1
  3
CMLEADERSTYLE
350
1CD
  3
CTABLESTYLE
350
1CC
  3
CVIEWDETAILSTYLE
350
1CE
  3
CVIEWSECTIONSTYLE
350
1CF
  3
LAYEREVAL
350
1D3
  3
LAYERNOTIFY
350
1D4
  3
LIGHTINGUNITS
350
1D2
  3
MSLTSCALE
350
1D0
  0
DICTIONARY
  5
1C5
102
{ACAD_REACTORS
330
1C4
102
}
330
1C4
100
AcDbDictionary
281
     1
  0
XRECORD
  5
1BC
102
{ACAD_REACTORS
330
1BB
102
}
330
1BB
100
AcDbXrecord
280
     1
290
     1
  0
XRECORD
  5
1BE
102
{ACAD_REACTORS
330
1BD
102
}
330
1BD
100
AcDbXrecord
280
     1
290
     1
  0
XRECORD
  5
1C0
102
{ACAD_REACTORS
330
1BF
102
}
330
1BF
100
AcDbXrecord
280
     1
290
     1
  0
SORTENTSTABLE
  5
386
102
{ACAD_REACTORS
330
385
102
}
330
385
100
AcDbSortentsTable
330
A
331
6B5
  5
5BF
331
587
  5
578
331
583
  5
574
331
6B1
  5
5BA
331
57F
  5
570
331
5BE
  5
596
331
6AD
  5
5B6
331
6A9
  5
5B2
331
5BA
  5
592
331
57B
  5
54B
331
4BC
  5
6CD
331
4B8
  5
6C8
331
4B4
  5
6C4
331
577
  5
4BA
331
5B6
  5
59C
331
573
  5
4B6
331
5B2
  5
58A
331
5AE
  5
5AC
331
56F
  5
49B
331
5AA
  5
5A6
331
5A6
  5
5A2
331
6D0
  5
6B9
331
5A2
  5
59B
331
59E
  5
597
331
6CC
  5
6B3
331
59A
  5
58F
331
6C8
  5
6BD
331
54B
  5
6CF
331
6C4
  5
6B6
331
596
  5
587
331
592
  5
583
331
6C0
  5
6AF
331
58E
  5
57F
331
6BC
  5
6AB
331
58A
  5
57B
331
586
  5
577
331
6B4
  5
5BD
331
582
  5
573
331
6B0
  5
5B9
331
6AC
  5
5B5
331
5BD
  5
5A1
331
57E
  5
56F
331
57A
  5
4C4
331
5B9
  5
5AD
331
6A8
  5
5B1
331
4BB
  5
6CC
331
4B7
  5
6C7
331
4B3
  5
6C3
331
5B5
  5
590
331
576
  5
4B9
331
572
  5
4B5
331
5B1
  5
588
331
5AD
  5
5AA
331
56E
  5
3FD
331
5A9
  5
5A5
331
49B
  5
6C2
331
5A5
  5
5A0
331
5A1
  5
59A
331
6CF
  5
6B7
331
59D
  5
595
331
6CB
  5
6B1
331
599
  5
58D
331
6C7
  5
6BC
331
595
  5
586
331
6C3
  5
6B4
331
591
  5
582
331
6BF
  5
6AE
331
6BB
  5
6AA
331
58D
  5
57E
331
589
  5
57A
331
13E
  5
143
331
6B7
  5
6A6
331
585
  5
576
331
6B3
  5
5BC
331
6AF
  5
5B8
331
581
  5
572
331
5BC
  5
5AF
331
57D
  5
56E
331
6AB
  5
5B4
331
579
  5
4BC
331
5B8
  5
5AB
331
4BA
  5
6CB
331
4B6
  5
6C6
331
5B4
  5
58E
331
575
  5
4B8
331
571
  5
4B4
331
5B0
  5
59D
331
5AC
  5
5A8
331
5A8
  5
5A4
331
5A4
  5
59F
331
6D2
  5
6C1
331
5A0
  5
599
331
6CE
  5
6B5
331
6CA
  5
6C0
331
59C
  5
593
331
598
  5
58B
331
6C6
  5
6BA
331
594
  5
585
331
6C2
  5
6B2
331
6BE
  5
6AD
331
590
  5
581
331
58C
  5
57D
331
6BA
  5
6A9
331
588
  5
579
331
6B6
  5
5E1
331
6B2
  5
5BB
331
584
  5
575
331
580
  5
571
331
5BF
  5
6D0
331
6AE
  5
5B7
331
5BB
  5
594
331
57C
  5
56D
331
6AA
  5
5B3
331
578
  5
4BB
331
4B9
  5
6C9
331
4B5
  5
6C5
331
5B7
  5
5A9
331
574
  5
4B7
331
5B3
  5
58C
331
5AF
  5
5AE
331
570
  5
4B3
331
5AB
  5
5A7
331
5A7
  5
5A3
331
5A3
  5
59E
331
6D1
  5
6BB
331
6CD
  5
6BF
331
59F
  5
598
331
59B
  5
591
331
6C9
  5
6BE
331
597
  5
589
331
6C5
  5
6B8
331
6C1
  5
6B0
331
593
  5
584
331
58F
  5
580
331
6BD
  5
6AC
331
58B
  5
57C
331
6B9
  5
6A8
331
4C4
  5
6CE
  0
XRECORD
  5
281
102
{ACAD_REACTORS
330
280
102
}
330
280
100
AcDbXrecord
280
     1
 90
        1
340
19B
  0
XRECORD
  5
286
102
{ACAD_REACTORS
330
285
102
}
330
285
100
AcDbXrecord
280
     1
 90
        1
340
19B
  0
ACDBDETAILVIEWSTYLE
  5
1B2
102
{ACAD_REACTORS
330
1B1
102
}
330
1B1
100
AcDbModelDocViewStyle
 70
     0
  3
Imperial24
290
     0
100
AcDbDetailViewStyle
 70
     0
 71
     0
 90
        3
 71
     1
340
17
 62
   256
 40
0.24
340
0
 62
   256
 40
0.24
300

 40
0.36
280
     3
 71
     2
340
13
 90
       25
 62
   256
 71
     3
340
17
 62
   256
 40
0.24
 90
        1
 40
0.75
 90
        1
300
%<\AcVar ViewType \f "%tc1">% %<\AcVar ViewDetailId>%\PSCALE %<\AcVar ViewScale \f "%sn">%
 71
     4
340
13
 90
       25
 62
   256
340
13
 90
       25
 62
   256
280
     0
  0
LAYOUT
  5
1B5
102
{ACAD_XDICTIONARY
360
214
102
}
102
{ACAD_REACTORS
330
1B3
102
}
330
1B3
100
AcDbPlotSettings
  1

  2
SHARP MX-2310F
  4
A4
  6

 40
5.027082920074462
 41
5.027099609375
 42
5.027069091796875
 43
5.027069091796875
 44
209.9733276367187
 45
296.9259948730469
 46
0.0
 47
0.0
 48
0.0
 49
0.0
140
0.0
141
0.0
142
1.0
143
94.99330649498199
 70
 11952
 72
     0
 73
     1
 74
     0
  7

 75
     0
147
0.0105270575043393
 76
     0
 77
     2
 78
   300
148
40255.7317145911
149
4047.129044918747
100
AcDbLayout
  1
Model
 70
     1
 71
     0
 10
0.0
 20
0.0
 11
12.0
 21
9.0
 12
0.0
 22
0.0
 32
0.0
 14
0.0
 24
0.0
 34
0.0
 15
0.0
 25
0.0
 35
0.0
146
0.0
 13
0.0
 23
0.0
 33
0.0
 16
1.0
 26
0.0
 36
0.0
 17
0.0
 27
1.0
 37
0.0
 76
     0
330
A
331
15
1001
ACAD_PSEXT
1000
SHARP MX-2310F
1000
SHARP MX-2310F
1000
192.168.1.222
1000

1070
     0
  0
LAYOUT
  5
1B6
102
{ACAD_REACTORS
330
1B3
102
}
330
1B3
100
AcDbPlotSettings
  1

  2
SHARP MX-2310F
  4
A4
  6

 40
5.027082920074462
 41
5.027099609375
 42
5.027069091796875
 43
5.027069091796875
 44
209.9733276367187
 45
296.9259948730469
 46
0.0
 47
0.0
 48
0.0
 49
0.0
140
0.0
141
0.0
142
1.0
143
1.0
 70
   688
 72
     0
 73
     1
 74
     5
  7

 75
    16
147
1.0
 76
     0
 77
     2
 78
   300
148
0.0
149
0.0
100
AcDbLayout
  1
レイアウト1
 70
     0
 71
     1
 10
-0.1979161059762549
 20
-0.1979166503966324
 11
11.4920836921752
 21
8.068749791993869
 12
0.0
 22
0.0
 32
0.0
 14
1.129416638471948
 24
0.7870833686017616
 34
0.0
 15
10.16474974624754
 25
7.083750317415853
 35
0.0
146
0.0
 13
0.0
 23
0.0
 33
0.0
 16
1.0
 26
0.0
 36
0.0
 17
0.0
 27
1.0
 37
0.0
 76
     0
330
B
331
27F
1001
ACAD_PSEXT
1000
SHARP MX-2310F
1000
SHARP MX-2310F
1000
192.168.1.222
1000

1070
     0
  0
MATERIAL
  5
16E
102
{ACAD_XDICTIONARY
360
16F
102
}
102
{ACAD_REACTORS
330
165
102
}
330
165
100
AcDbMaterial
  1
ByBlock
 72
     0
 43
0.0208333333333333
 43
0.0
 43
0.0
 43
0.0
 43
0.0
 43
0.0208333333333333
 43
0.0
 43
0.0
 43
0.0
 43
0.0
 43
1.0
 43
0.0
 43
0.0
 43
0.0
 43
0.0
 43
1.0
 77
     0
 47
0.0208333333333333
 47
0.0
 47
0.0
 47
0.0
 47
0.0
 47
0.0208333333333333
 47
0.0
 47
0.0
 47
0.0
 47
0.0
 47
1.0
 47
0.0
 47
0.0
 47
0.0
 47
0.0
 47
1.0
171
     0
 49
0.0208333333333333
 49
0.0
 49
0.0
 49
0.0
 49
0.0
 49
0.0208333333333333
 49
0.0
 49
0.0
 49
0.0
 49
0.0
 49
1.0
 49
0.0
 49
0.0
 49
0.0
 49
0.0
 49
1.0
175
     0
142
0.0208333333333333
142
0.0
142
0.0
142
0.0
142
0.0
142
0.0208333333333333
142
0.0
142
0.0
142
0.0
142
0.0
142
1.0
142
0.0
142
0.0
142
0.0
142
0.0
142
1.0
179
     0
144
0.0208333333333333
144
0.0
144
0.0
144
0.0
144
0.0
144
0.0208333333333333
144
0.0
144
0.0
144
0.0
144
0.0
144
1.0
144
0.0
144
0.0
144
0.0
144
0.0
144
1.0
147
0.0208333333333333
147
0.0
147
0.0
147
0.0
147
0.0
147
0.0208333333333333
147
0.0
147
0.0
147
0.0
147
0.0
147
1.0
147
0.0
147
0.0
147
0.0
147
0.0
147
1.0
  0
MATERIAL
  5
166
102
{ACAD_XDICTIONARY
360
167
102
}
102
{ACAD_REACTORS
330
165
102
}
330
165
100
AcDbMaterial
  1
ByLayer
 72
     0
 43
0.0208333333333333
 43
0.0
 43
0.0
 43
0.0
 43
0.0
 43
0.0208333333333333
 43
0.0
 43
0.0
 43
0.0
 43
0.0
 43
1.0
 43
0.0
 43
0.0
 43
0.0
 43
0.0
 43
1.0
 77
     0
 47
0.0208333333333333
 47
0.0
 47
0.0
 47
0.0
 47
0.0
 47
0.0208333333333333
 47
0.0
 47
0.0
 47
0.0
 47
0.0
 47
1.0
 47
0.0
 47
0.0
 47
0.0
 47
0.0
 47
1.0
171
     0
 49
0.0208333333333333
 49
0.0
 49
0.0
 49
0.0
 49
0.0
 49
0.0208333333333333
 49
0.0
 49
0.0
 49
0.0
 49
0.0
 49
1.0
 49
0.0
 49
0.0
 49
0.0
 49
0.0
 49
1.0
175
     0
142
0.0208333333333333
142
0.0
142
0.0
142
0.0
142
0.0
142
0.0208333333333333
142
0.0
142
0.0
142
0.0
142
0.0
142
1.0
142
0.0
142
0.0
142
0.0
142
0.0
142
1.0
179
     0
144
0.0208333333333333
144
0.0
144
0.0
144
0.0
144
0.0
144
0.0208333333333333
144
0.0
144
0.0
144
0.0
144
0.0
144
1.0
144
0.0
144
0.0
144
0.0
144
0.0
144
1.0
147
0.0208333333333333
147
0.0
147
0.0
147
0.0
147
0.0
147
0.0208333333333333
147
0.0
147
0.0
147
0.0
147
0.0
147
1.0
147
0.0
147
0.0
147
0.0
147
0.0
147
1.0
  0
MATERIAL
  5
176
102
{ACAD_XDICTIONARY
360
177
102
}
102
{ACAD_REACTORS
330
165
102
}
330
165
100
AcDbMaterial
  1
Global
 72
     0
 43
0.0208333333333333
 43
0.0
 43
0.0
 43
0.0
 43
0.0
 43
0.0208333333333333
 43
0.0
 43
0.0
 43
0.0
 43
0.0
 43
1.0
 43
0.0
 43
0.0
 43
0.0
 43
0.0
 43
1.0
 77
     0
 47
0.0208333333333333
 47
0.0
 47
0.0
 47
0.0
 47
0.0
 47
0.0208333333333333
 47
0.0
 47
0.0
 47
0.0
 47
0.0
 47
1.0
 47
0.0
 47
0.0
 47
0.0
 47
0.0
 47
1.0
171
     0
 49
0.0208333333333333
 49
0.0
 49
0.0
 49
0.0
 49
0.0
 49
0.0208333333333333
 49
0.0
 49
0.0
 49
0.0
 49
0.0
 49
1.0
 49
0.0
 49
0.0
 49
0.0
 49
0.0
 49
1.0
175
     0
142
0.0208333333333333
142
0.0
142
0.0
142
0.0
142
0.0
142
0.0208333333333333
142
0.0
142
0.0
142
0.0
142
0.0
142
1.0
142
0.0
142
0.0
142
0.0
142
0.0
142
1.0
179
     0
144
0.0208333333333333
144
0.0
144
0.0
144
0.0
144
0.0
144
0.0208333333333333
144
0.0
144
0.0
144
0.0
144
0.0
144
1.0
144
0.0
144
0.0
144
0.0
144
0.0
144
1.0
147
0.0208333333333333
147
0.0
147
0.0
147
0.0
147
0.0
147
0.0208333333333333
147
0.0
147
0.0
147
0.0
147
0.0
147
1.0
147
0.0
147
0.0
147
0.0
147
0.0
147
1.0
  0
MLEADERSTYLE
  5
1AD
102
{ACAD_REACTORS
330
1AC
102
}
330
1AC
100
AcDbMLeaderStyle
179
     2
170
     2
171
     1
172
     0
 90
        2
 40
0.0
 41
0.0
173
     1
 91
-1056964608
340
11
 92
       -2
290
     1
 42
0.09
291
     1
 43
0.36
  3
Standard
 44
0.18
300

342
17
174
     1
178
     6
175
     1
176
     0
 93
-1056964608
 45
0.18
292
     0
297
     0
 46
0.18
 94
-1056964608
 47
1.0
 49
1.0
140
1.0
293
     1
141
0.0
294
     1
177
     0
142
1.0
295
     0
296
     0
143
0.125
271
     0
272
     9
273
     9
298
     1
  0
MLINESTYLE
  5
1C
102
{ACAD_REACTORS
330
1B
102
}
330
1B
100
AcDbMlineStyle
  2
STANDARD
 70
     0
  3

 62
     0
 51
90.00000000000019
 52
90.00000000000019
 71
     2
 49
0.5
 62
   256
  6
BYLAYER
 49
-0.5
 62
   256
  6
BYLAYER
  0
ACDBPLACEHOLDER
  5
164
102
{ACAD_REACTORS
330
163
102
}
330
163
  0
SCALE
  5
19B
102
{ACAD_REACTORS
330
19A
102
}
330
19A
100
AcDbScale
 70
     0
300
1:1
140
1.0
141
1.0
290
     1
  0
SCALE
  5
19C
102
{ACAD_REACTORS
330
19A
102
}
330
19A
100
AcDbScale
 70
     0
300
1/128" = 1'-0"
140
0.0078125
141
12.0
290
     0
  0
SCALE
  5
19D
102
{ACAD_REACTORS
330
19A
102
}
330
19A
100
AcDbScale
 70
     0
300
1/64" = 1'-0"
140
0.015625
141
12.0
290
     0
  0
SCALE
  5
19E
102
{ACAD_REACTORS
330
19A
102
}
330
19A
100
AcDbScale
 70
     0
300
1/32" = 1'-0"
140
0.03125
141
12.0
290
     0
  0
SCALE
  5
19F
102
{ACAD_REACTORS
330
19A
102
}
330
19A
100
AcDbScale
 70
     0
300
1/16" = 1'-0"
140
0.0625
141
12.0
290
     0
  0
SCALE
  5
1A0
102
{ACAD_REACTORS
330
19A
102
}
330
19A
100
AcDbScale
 70
     0
300
3/32" = 1'-0"
140
0.09375
141
12.0
290
     0
  0
SCALE
  5
1A1
102
{ACAD_REACTORS
330
19A
102
}
330
19A
100
AcDbScale
 70
     0
300
1/8" = 1'-0"
140
0.125
141
12.0
290
     0
  0
SCALE
  5
1A2
102
{ACAD_REACTORS
330
19A
102
}
330
19A
100
AcDbScale
 70
     0
300
3/16" = 1'-0"
140
0.1875
141
12.0
290
     0
  0
SCALE
  5
1A3
102
{ACAD_REACTORS
330
19A
102
}
330
19A
100
AcDbScale
 70
     0
300
1/4" = 1'-0"
140
0.25
141
12.0
290
     0
  0
SCALE
  5
1A4
102
{ACAD_REACTORS
330
19A
102
}
330
19A
100
AcDbScale
 70
     0
300
3/8" = 1'-0"
140
0.375
141
12.0
290
     0
  0
SCALE
  5
1A5
102
{ACAD_REACTORS
330
19A
102
}
330
19A
100
AcDbScale
 70
     0
300
1/2" = 1'-0"
140
0.5
141
12.0
290
     0
  0
SCALE
  5
1A6
102
{ACAD_REACTORS
330
19A
102
}
330
19A
100
AcDbScale
 70
     0
300
3/4" = 1'-0"
140
0.75
141
12.0
290
     0
  0
SCALE
  5
1A7
102
{ACAD_REACTORS
330
19A
102
}
330
19A
100
AcDbScale
 70
     0
300
1" = 1'-0"
140
1.0
141
12.0
290
     0
  0
SCALE
  5
1A8
102
{ACAD_REACTORS
330
19A
102
}
330
19A
100
AcDbScale
 70
     0
300
1-1/2" = 1'-0"
140
1.5
141
12.0
290
     0
  0
SCALE
  5
1A9
102
{ACAD_REACTORS
330
19A
102
}
330
19A
100
AcDbScale
 70
     0
300
3" = 1'-0"
140
3.0
141
12.0
290
     0
  0
SCALE
  5
1AA
102
{ACAD_REACTORS
330
19A
102
}
330
19A
100
AcDbScale
 70
     0
300
6" = 1'-0"
140
6.0
141
12.0
290
     0
  0
SCALE
  5
1AB
102
{ACAD_REACTORS
330
19A
102
}
330
19A
100
AcDbScale
 70
     0
300
1'-0" = 1'-0"
140
12.0
141
12.0
290
     0
  0
ACDBSECTIONVIEWSTYLE
  5
1B0
102
{ACAD_REACTORS
330
1AE
102
}
330
1AE
100
AcDbModelDocViewStyle
 70
     0
  3
Imperial24
290
     0
100
AcDbSectionViewStyle
 70
     0
 71
     0
 90
       78
 71
     1
340
17
 62
   256
 40
0.24
340
0
340
0
 62
   256
 40
0.24
300
I, O, Q, S, X, Z
 40
0.48
 90
        3
 40
0.18
 90
        1
 71
     2
340
1AF
 90
       25
 62
   256
340
13
 90
       50
 62
   256
 40
0.24
 40
0.0
 40
0.24
 71
     3
340
17
 62
   256
 40
0.24
 90
        1
 40
0.75
 90
        1
300
%<\AcVar ViewType \f "%tc1">% %<\AcVar ViewSectionStartId>%-%<\AcVar ViewSectionEndId>%\PSCALE %<\AcVar ViewScale \f "%sn">%
 71
     4
 62
   256
 62
   257
300
ANSI31
 40
1.0
 90
        0
290
     0
290
     0
 90
        6
 40
0.0
 40
1.570796326794896
 40
0.2617993877991494
 40
1.308996938995747
 40
-0.2617993877991494
 40
1.832595714594046
  0
TABLESTYLE
  5
199
102
{ACAD_XDICTIONARY
360
76B
102
}
102
{ACAD_REACTORS
330
198
102
}
330
198
100
AcDbTableStyle
280
     0
  3
Standard
 70
     0
 71
     0
 40
0.06
 41
0.06
280
     0
281
     0
  7
STANDARD
140
0.18
170
     2
 62
     0
 63
     7
283
     0
 90
      512
 91
        0
  1

274
    -2
284
     1
 64
     0
275
    -2
285
     1
 65
     0
276
    -2
286
     1
 66
     0
277
    -2
287
     1
 67
     0
278
    -2
288
     1
 68
     0
279
    -2
289
     1
 69
     0
  7
STANDARD
140
0.25
170
     5
 62
     0
 63
     7
283
     0
 90
      512
 91
        0
  1

274
    -2
284
     1
 64
     0
275
    -2
285
     1
 65
     0
276
    -2
286
     1
 66
     0
277
    -2
287
     1
 67
     0
278
    -2
288
     1
 68
     0
279
    -2
289
     1
 69
     0
  7
STANDARD
140
0.18
170
     5
 62
     0
 63
     7
283
     0
 90
      512
 91
        0
  1

274
    -2
284
     1
 64
     0
275
    -2
285
     1
 65
     0
276
    -2
286
     1
 66
     0
277
    -2
287
     1
 67
     0
278
    -2
288
     1
 68
     0
279
    -2
289
     1
 69
     0
  0
VISUALSTYLE
  5
184
102
{ACAD_REACTORS
330
17E
102
}
330
17E
100
AcDbVisualStyle
  2
2dWireframe
 70
     4
177
     3
291
     0
 70
    58
 90
        0
176
     1
 90
        2
176
     1
 90
        0
176
     1
 90
        0
176
     1
 40
0.6
176
     1
 40
30.0
176
     1
 62
     7
420
 16777215
176
     1
 90
        1
176
     1
 90
        4
176
     1
 62
     7
176
     1
 62
   257
176
     1
 90
        1
176
     1
 90
        1
176
     1
 40
1.0
176
     1
 90
        0
176
     1
 62
   257
176
     1
 40
1.0
176
     1
 90
        1
176
     1
 90
        6
176
     1
 90
        2
176
     1
 62
     7
176
     1
 90
        5
176
     1
 90
        0
176
     1
 90
        0
176
     1
290
     0
176
     1
 90
        1
176
     1
 40
0.0
176
     1
 90
        0
176
     1
290
     1
176
     1
290
     1
176
     1
290
     0
176
     1
290
     0
176
     1
290
     0
176
     1
290
     0
176
     1
290
     0
176
     1
290
     0
176
     1
290
     0
176
     1
 90
       50
176
     1
 40
0.0
176
     1
 40
1.0
176
     1
 90
        0
176
     1
 62
    18
420
        0
176
     1
 90
       50
176
     1
 90
        3
176
     1
 62
     5
420
      255
176
     1
290
     0
176
     1
 90
       50
176
     1
 90
       50
176
     1
 90
       50
176
     1
290
     0
176
     1
 90
       50
176
     1
 62
   256
176
     0
 40
1.0
176
     0
 90
        2
176
     1
  1
strokes_ogs.tif
176
     1
290
     0
176
     1
 40
1.0
176
     1
 40
1.0
176
     1
  0
VISUALSTYLE
  5
183
102
{ACAD_REACTORS
330
17E
102
}
330
17E
100
AcDbVisualStyle
  2
Basic
 70
     7
177
     3
291
     1
 70
    58
 90
        1
176
     1
 90
        0
176
     1
 90
        1
176
     1
 90
        0
176
     1
 40
0.6
176
     1
 40
30.0
176
     1
 62
     7
420
 16777215
176
     1
 90
        0
176
     1
 90
        4
176
     1
 62
     7
176
     1
 62
   257
176
     1
 90
        1
176
     1
 90
        1
176
     1
 40
1.0
176
     1
 90
        8
176
     1
 62
     7
176
     1
 40
1.0
176
     1
 90
        1
176
     1
 90
        6
176
     1
 90
        2
176
     1
 62
     7
176
     1
 90
        5
176
     1
 90
        0
176
     1
 90
        0
176
     1
290
     0
176
     1
 90
        1
176
     1
 40
0.0
176
     1
 90
        0
176
     1
290
     0
176
     1
290
     1
176
     1
290
     1
176
     1
290
     0
176
     1
290
     0
176
     1
290
     0
176
     1
290
     0
176
     1
290
     0
176
     1
290
     0
176
     1
 90
       50
176
     1
 40
0.0
176
     1
 40
1.0
176
     1
 90
        0
176
     1
 62
    18
420
        0
176
     1
 90
       50
176
     1
 90
        3
176
     1
 62
     5
420
      255
176
     1
290
     0
176
     1
 90
       50
176
     1
 90
       50
176
     1
 90
       50
176
     1
290
     0
176
     1
 90
       50
176
     1
 62
   256
176
     0
 40
1.0
176
     0
 90
        2
176
     1
  1
strokes_ogs.tif
176
     1
290
     0
176
     1
 40
1.0
176
     1
 40
1.0
176
     1
  0
VISUALSTYLE
  5
18A
102
{ACAD_REACTORS
330
17E
102
}
330
17E
100
AcDbVisualStyle
  2
Brighten
 70
    12
177
     3
291
     1
 70
    58
 90
        2
176
     1
 90
        2
176
     1
 90
        0
176
     1
 90
        0
176
     1
 40
0.6
176
     1
 40
30.0
176
     1
 62
     7
420
 16777215
176
     1
 90
        1
176
     1
 90
        4
176
     1
 62
     7
176
     1
 62
   257
176
     1
 90
        1
176
     1
 90
        1
176
     1
 40
1.0
176
     1
 90
        8
176
     1
 62
     7
176
     1
 40
1.0
176
     1
 90
        1
176
     1
 90
        6
176
     1
 90
        2
176
     1
 62
     7
176
     1
 90
        5
176
     1
 90
        0
176
     1
 90
        0
176
     1
290
     0
176
     1
 90
        1
176
     1
 40
50.0
176
     1
 90
        0
176
     1
290
     0
176
     1
290
     1
176
     1
290
     1
176
     1
290
     0
176
     1
290
     0
176
     1
290
     0
176
     1
290
     0
176
     1
290
     0
176
     1
290
     0
176
     1
 90
       50
176
     1
 40
0.0
176
     1
 40
1.0
176
     1
 90
        0
176
     1
 62
    18
420
        0
176
     1
 90
       50
176
     1
 90
        3
176
     1
 62
     5
420
      255
176
     1
290
     0
176
     1
 90
       50
176
     1
 90
       50
176
     1
 90
       50
176
     1
290
     0
176
     1
 90
       50
176
     1
 62
   256
176
     0
 40
1.0
176
     0
 90
        2
176
     1
  1
strokes_ogs.tif
176
     1
290
     0
176
     1
 40
1.0
176
     1
 40
1.0
176
     1
  0
VISUALSTYLE
  5
18E
102
{ACAD_REACTORS
330
17E
102
}
330
17E
100
AcDbVisualStyle
  2
ColorChange
 70
    16
177
     3
291
     1
 70
    58
 90
        2
176
     1
 90
        2
176
     1
 90
        3
176
     1
 90
        0
176
     1
 40
0.6
176
     1
 40
30.0
176
     1
 62
     8
420
  8421504
176
     1
 90
        1
176
     1
 90
        4
176
     1
 62
     7
176
     1
 62
   257
176
     1
 90
        1
176
     1
 90
        1
176
     1
 40
1.0
176
     1
 90
        8
176
     1
 62
     8
420
  8421504
176
     1
 40
1.0
176
     1
 90
        1
176
     1
 90
        6
176
     1
 90
        2
176
     1
 62
     7
176
     1
 90
        5
176
     1
 90
        0
176
     1
 90
        0
176
     1
290
     0
176
     1
 90
        1
176
     1
 40
0.0
176
     1
 90
        0
176
     1
290
     0
176
     1
290
     1
176
     1
290
     1
176
     1
290
     0
176
     1
290
     0
176
     1
290
     0
176
     1
290
     0
176
     1
290
     0
176
     1
290
     0
176
     1
 90
       50
176
     1
 40
0.0
176
     1
 40
1.0
176
     1
 90
        0
176
     1
 62
    18
420
        0
176
     1
 90
       50
176
     1
 90
        3
176
     1
 62
     5
420
      255
176
     1
290
     0
176
     1
 90
       50
176
     1
 90
       50
176
     1
 90
       50
176
     1
290
     0
176
     1
 90
       50
176
     1
 62
   256
176
     0
 40
1.0
176
     0
 90
        2
176
     1
  1
strokes_ogs.tif
176
     1
290
     0
176
     1
 40
1.0
176
     1
 40
1.0
176
     1
  0
VISUALSTYLE
  5
187
102
{ACAD_REACTORS
330
17E
102
}
330
17E
100
AcDbVisualStyle
  2
Conceptual
 70
     9
177
     3
291
     0
 70
    58
 90
        3
176
     1
 90
        2
176
     1
 90
        0
176
     1
 90
        0
176
     1
 40
0.6
176
     1
 40
30.0
176
     1
 62
     7
420
 16777215
176
     1
 90
        2
176
     1
 90
        2
176
     1
 62
     7
176
     1
 62
   257
176
     1
 90
        1
176
     1
 90
        1
176
     1
 40
179.0
176
     1
 90
        8
176
     1
 62
     7
176
     1
 40
1.0
176
     1
 90
        1
176
     1
 90
        6
176
     1
 90
        2
176
     1
 62
     7
176
     1
 90
        3
176
     1
 90
        0
176
     1
 90
        0
176
     1
290
     0
176
     1
 90
        1
176
     1
 40
0.0
176
     1
 90
        0
176
     1
290
     0
176
     1
290
     1
176
     1
290
     1
176
     1
290
     0
176
     1
290
     0
176
     1
290
     0
176
     1
290
     0
176
     1
290
     0
176
     1
290
     0
176
     1
 90
       50
176
     1
 40
0.0
176
     1
 40
1.0
176
     1
 90
        0
176
     1
 62
    18
420
        0
176
     1
 90
       50
176
     1
 90
        3
176
     1
 62
     5
420
      255
176
     1
290
     0
176
     1
 90
       50
176
     1
 90
       50
176
     1
 90
       50
176
     1
290
     0
176
     1
 90
       50
176
     1
 62
   256
176
     0
 40
1.0
176
     0
 90
        2
176
     1
  1
strokes_ogs.tif
176
     1
290
     0
176
     1
 40
1.0
176
     1
 40
1.0
176
     1
  0
VISUALSTYLE
  5
189
102
{ACAD_REACTORS
330
17E
102
}
330
17E
100
AcDbVisualStyle
  2
Dim
 70
    11
177
     3
291
     1
 70
    58
 90
        2
176
     1
 90
        2
176
     1
 90
        0
176
     1
 90
        0
176
     1
 40
0.6
176
     1
 40
30.0
176
     1
 62
     7
420
 16777215
176
     1
 90
        1
176
     1
 90
        4
176
     1
 62
     7
176
     1
 62
   257
176
     1
 90
        1
176
     1
 90
        1
176
     1
 40
1.0
176
     1
 90
        8
176
     1
 62
     7
176
     1
 40
1.0
176
     1
 90
        1
176
     1
 90
        6
176
     1
 90
        2
176
     1
 62
     7
176
     1
 90
        5
176
     1
 90
        0
176
     1
 90
        0
176
     1
290
     0
176
     1
 90
        1
176
     1
 40
-50.0
176
     1
 90
        0
176
     1
290
     0
176
     1
290
     1
176
     1
290
     1
176
     1
290
     0
176
     1
290
     0
176
     1
290
     0
176
     1
290
     0
176
     1
290
     0
176
     1
290
     0
176
     1
 90
       50
176
     1
 40
0.0
176
     1
 40
1.0
176
     1
 90
        0
176
     1
 62
    18
420
        0
176
     1
 90
       50
176
     1
 90
        3
176
     1
 62
     5
420
      255
176
     1
290
     0
176
     1
 90
       50
176
     1
 90
       50
176
     1
 90
       50
176
     1
290
     0
176
     1
 90
       50
176
     1
 62
   256
176
     0
 40
1.0
176
     0
 90
        2
176
     1
  1
strokes_ogs.tif
176
     1
290
     0
176
     1
 40
1.0
176
     1
 40
1.0
176
     1
  0
VISUALSTYLE
  5
196
102
{ACAD_REACTORS
330
17E
102
}
330
17E
100
AcDbVisualStyle
  2
EdgeColorOff
 70
    22
177
     3
291
     1
 70
    58
 90
        2
176
     0
 90
        2
176
     0
 90
        0
176
     0
 90
        0
176
     0
 40
0.6
176
     0
 40
30.0
176
     0
 62
     7
420
 16777215
176
     0
 90
        1
176
     0
 90
        4
176
     0
 62
     7
176
     0
 62
   257
176
     0
 90
        1
176
     0
 90
        1
176
     0
 40
1.0
176
     0
 90
        8
176
     2
 62
     7
176
     0
 40
1.0
176
     0
 90
        1
176
     0
 90
        6
176
     0
 90
        2
176
     0
 62
     7
176
     0
 90
        5
176
     0
 90
        0
176
     0
 90
        0
176
     0
290
     0
176
     0
 90
        1
176
     0
 40
0.0
176
     0
 90
        0
176
     0
290
     0
176
     0
290
     1
176
     0
290
     1
176
     0
290
     0
176
     0
290
     0
176
     0
290
     0
176
     0
290
     0
176
     0
290
     0
176
     0
290
     0
176
     0
 90
       50
176
     0
 40
0.0
176
     0
 40
1.0
176
     0
 90
        0
176
     0
 62
    18
420
        0
176
     0
 90
       50
176
     0
 90
        3
176
     0
 62
     5
420
      255
176
     0
290
     0
176
     0
 90
       50
176
     0
 90
       50
176
     0
 90
       50
176
     0
290
     0
176
     0
 90
       50
176
     0
 62
   256
176
     0
 40
1.0
176
     0
 90
        2
176
     0
  1
strokes_ogs.tif
176
     0
290
     0
176
     0
 40
1.0
176
     0
 40
1.0
176
     0
  0
VISUALSTYLE
  5
18D
102
{ACAD_REACTORS
330
17E
102
}
330
17E
100
AcDbVisualStyle
  2
Facepattern
 70
    15
177
     3
291
     1
 70
    58
 90
        2
176
     1
 90
        2
176
     1
 90
        0
176
     1
 90
        0
176
     1
 40
0.6
176
     1
 40
30.0
176
     1
 62
     7
420
 16777215
176
     1
 90
        1
176
     1
 90
        4
176
     1
 62
     7
176
     1
 62
   257
176
     1
 90
        1
176
     1
 90
        1
176
     1
 40
1.0
176
     1
 90
        8
176
     1
 62
     7
176
     1
 40
1.0
176
     1
 90
        1
176
     1
 90
        6
176
     1
 90
        2
176
     1
 62
     7
176
     1
 90
        5
176
     1
 90
        0
176
     1
 90
        0
176
     1
290
     0
176
     1
 90
        1
176
     1
 40
0.0
176
     1
 90
        0
176
     1
290
     0
176
     1
290
     1
176
     1
290
     1
176
     1
290
     0
176
     1
290
     0
176
     1
290
     0
176
     1
290
     0
176
     1
290
     0
176
     1
290
     0
176
     1
 90
       50
176
     1
 40
0.0
176
     1
 40
1.0
176
     1
 90
        0
176
     1
 62
    18
420
        0
176
     1
 90
       50
176
     1
 90
        3
176
     1
 62
     5
420
      255
176
     1
290
     0
176
     1
 90
       50
176
     1
 90
       50
176
     1
 90
       50
176
     1
290
     0
176
     1
 90
       50
176
     1
 62
   256
176
     0
 40
1.0
176
     0
 90
        2
176
     1
  1
strokes_ogs.tif
176
     1
290
     0
176
     1
 40
1.0
176
     1
 40
1.0
176
     1
  0
VISUALSTYLE
  5
17F
102
{ACAD_REACTORS
330
17E
102
}
330
17E
100
AcDbVisualStyle
  2
Flat
 70
     0
177
     3
291
     1
 70
    58
 90
        2
176
     1
 90
        1
176
     1
 90
        1
176
     1
 90
        2
176
     1
 40
0.6
176
     1
 40
30.0
176
     1
 62
     7
420
 16777215
176
     1
 90
        0
176
     1
 90
        0
176
     1
 62
     7
176
     1
 62
   257
176
     1
 90
        1
176
     1
 90
        1
176
     1
 40
1.0
176
     1
 90
        8
176
     1
 62
     7
176
     1
 40
1.0
176
     1
 90
        1
176
     1
 90
        6
176
     1
 90
        2
176
     1
 62
     7
176
     1
 90
        5
176
     1
 90
        0
176
     1
 90
        0
176
     1
290
     0
176
     1
 90
       13
176
     1
 40
0.0
176
     1
 90
        0
176
     1
290
     0
176
     1
290
     1
176
     1
290
     1
176
     1
290
     0
176
     1
290
     0
176
     1
290
     0
176
     1
290
     0
176
     1
290
     0
176
     1
290
     0
176
     1
 90
       50
176
     1
 40
0.0
176
     1
 40
1.0
176
     1
 90
        0
176
     1
 62
    18
420
        0
176
     1
 90
       50
176
     1
 90
        3
176
     1
 62
     5
420
      255
176
     1
290
     0
176
     1
 90
       50
176
     1
 90
       50
176
     1
 90
       50
176
     1
290
     0
176
     1
 90
       50
176
     1
 62
   256
176
     0
 40
1.0
176
     0
 90
        2
176
     1
  1
strokes_ogs.tif
176
     1
290
     0
176
     1
 40
1.0
176
     1
 40
1.0
176
     1
  0
VISUALSTYLE
  5
180
102
{ACAD_REACTORS
330
17E
102
}
330
17E
100
AcDbVisualStyle
  2
FlatWithEdges
 70
     1
177
     3
291
     1
 70
    58
 90
        2
176
     1
 90
        1
176
     1
 90
        1
176
     1
 90
        2
176
     1
 40
0.6
176
     1
 40
30.0
176
     1
 62
     7
420
 16777215
176
     1
 90
        1
176
     1
 90
        0
176
     1
 62
     7
176
     1
 62
   257
176
     1
 90
        1
176
     1
 90
        1
176
     1
 40
1.0
176
     1
 90
        0
176
     1
 62
   257
176
     1
 40
1.0
176
     1
 90
        1
176
     1
 90
        6
176
     1
 90
        2
176
     1
 62
     7
176
     1
 90
        5
176
     1
 90
        0
176
     1
 90
        0
176
     1
290
     0
176
     1
 90
       13
176
     1
 40
0.0
176
     1
 90
        0
176
     1
290
     0
176
     1
290
     1
176
     1
290
     1
176
     1
290
     0
176
     1
290
     0
176
     1
290
     0
176
     1
290
     0
176
     1
290
     0
176
     1
290
     0
176
     1
 90
       50
176
     1
 40
0.0
176
     1
 40
1.0
176
     1
 90
        0
176
     1
 62
    18
420
        0
176
     1
 90
       50
176
     1
 90
        3
176
     1
 62
     5
420
      255
176
     1
290
     0
176
     1
 90
       50
176
     1
 90
       50
176
     1
 90
       50
176
     1
290
     0
176
     1
 90
       50
176
     1
 62
   256
176
     0
 40
1.0
176
     0
 90
        2
176
     1
  1
strokes_ogs.tif
176
     1
290
     0
176
     1
 40
1.0
176
     1
 40
1.0
176
     1
  0
VISUALSTYLE
  5
181
102
{ACAD_REACTORS
330
17E
102
}
330
17E
100
AcDbVisualStyle
  2
Gouraud
 70
     2
177
     3
291
     1
 70
    58
 90
        2
176
     1
 90
        2
176
     1
 90
        1
176
     1
 90
        2
176
     1
 40
0.6
176
     1
 40
30.0
176
     1
 62
     7
420
 16777215
176
     1
 90
        0
176
     1
 90
        0
176
     1
 62
     7
176
     1
 62
   257
176
     1
 90
        1
176
     1
 90
        1
176
     1
 40
1.0
176
     1
 90
        0
176
     1
 62
     7
176
     1
 40
1.0
176
     1
 90
        1
176
     1
 90
        6
176
     1
 90
        2
176
     1
 62
     7
176
     1
 90
        5
176
     1
 90
        0
176
     1
 90
        0
176
     1
290
     0
176
     1
 90
       13
176
     1
 40
0.0
176
     1
 90
        0
176
     1
290
     0
176
     1
290
     1
176
     1
290
     1
176
     1
290
     0
176
     1
290
     0
176
     1
290
     0
176
     1
290
     0
176
     1
290
     0
176
     1
290
     0
176
     1
 90
       50
176
     1
 40
0.0
176
     1
 40
1.0
176
     1
 90
        0
176
     1
 62
    18
420
        0
176
     1
 90
       50
176
     1
 90
        3
176
     1
 62
     5
420
      255
176
     1
290
     0
176
     1
 90
       50
176
     1
 90
       50
176
     1
 90
       50
176
     1
290
     0
176
     1
 90
       50
176
     1
 62
   256
176
     0
 40
1.0
176
     0
 90
        2
176
     1
  1
strokes_ogs.tif
176
     1
290
     0
176
     1
 40
1.0
176
     1
 40
1.0
176
     1
  0
VISUALSTYLE
  5
182
102
{ACAD_REACTORS
330
17E
102
}
330
17E
100
AcDbVisualStyle
  2
GouraudWithEdges
 70
     3
177
     3
291
     1
 70
    58
 90
        2
176
     1
 90
        2
176
     1
 90
        1
176
     1
 90
        2
176
     1
 40
0.6
176
     1
 40
30.0
176
     1
 62
     7
420
 16777215
176
     1
 90
        1
176
     1
 90
        0
176
     1
 62
     7
176
     1
 62
   257
176
     1
 90
        1
176
     1
 90
        1
176
     1
 40
1.0
176
     1
 90
        0
176
     1
 62
   257
176
     1
 40
1.0
176
     1
 90
        1
176
     1
 90
        6
176
     1
 90
        2
176
     1
 62
     7
176
     1
 90
        5
176
     1
 90
        0
176
     1
 90
        0
176
     1
290
     0
176
     1
 90
       13
176
     1
 40
0.0
176
     1
 90
        0
176
     1
290
     0
176
     1
290
     1
176
     1
290
     1
176
     1
290
     0
176
     1
290
     0
176
     1
290
     0
176
     1
290
     0
176
     1
290
     0
176
     1
290
     0
176
     1
 90
       50
176
     1
 40
0.0
176
     1
 40
1.0
176
     1
 90
        0
176
     1
 62
    18
420
        0
176
     1
 90
       50
176
     1
 90
        3
176
     1
 62
     5
420
      255
176
     1
290
     0
176
     1
 90
       50
176
     1
 90
       50
176
     1
 90
       50
176
     1
290
     0
176
     1
 90
       50
176
     1
 62
   256
176
     0
 40
1.0
176
     0
 90
        2
176
     1
  1
strokes_ogs.tif
176
     1
290
     0
176
     1
 40
1.0
176
     1
 40
1.0
176
     1
  0
VISUALSTYLE
  5
186
102
{ACAD_REACTORS
330
17E
102
}
330
17E
100
AcDbVisualStyle
  2
Hidden
 70
     6
177
     3
291
     0
 70
    58
 90
        1
176
     1
 90
        2
176
     1
 90
        2
176
     1
 90
        0
176
     1
 40
0.6
176
     1
 40
30.0
176
     1
 62
     7
420
 16777215
176
     1
 90
        2
176
     1
 90
        2
176
     1
 62
     7
176
     1
 62
   257
176
     1
 90
        2
176
     1
 90
        1
176
     1
 40
40.0
176
     1
 90
        0
176
     1
 62
   257
176
     1
 40
1.0
176
     1
 90
        1
176
     1
 90
        6
176
     1
 90
        2
176
     1
 62
     7
176
     1
 90
        3
176
     1
 90
        0
176
     1
 90
        0
176
     1
290
     0
176
     1
 90
        1
176
     1
 40
0.0
176
     1
 90
        0
176
     1
290
     0
176
     1
290
     1
176
     1
290
     1
176
     1
290
     0
176
     1
290
     0
176
     1
290
     0
176
     1
290
     0
176
     1
290
     0
176
     1
290
     0
176
     1
 90
       50
176
     1
 40
0.0
176
     1
 40
1.0
176
     1
 90
        0
176
     1
 62
    18
420
        0
176
     1
 90
       50
176
     1
 90
        3
176
     1
 62
     5
420
      255
176
     1
290
     0
176
     1
 90
       50
176
     1
 90
       50
176
     1
 90
       50
176
     1
290
     0
176
     1
 90
       50
176
     1
 62
   256
176
     0
 40
1.0
176
     0
 90
        2
176
     1
  1
strokes_ogs.tif
176
     1
290
     0
176
     1
 40
1.0
176
     1
 40
1.0
176
     1
  0
VISUALSTYLE
  5
194
102
{ACAD_REACTORS
330
17E
102
}
330
17E
100
AcDbVisualStyle
  2
JitterOff
 70
    20
177
     3
291
     1
 70
    58
 90
        2
176
     0
 90
        2
176
     0
 90
        0
176
     0
 90
        0
176
     0
 40
0.6
176
     0
 40
30.0
176
     0
 62
     7
420
 16777215
176
     0
 90
        1
176
     0
 90
        4
176
     0
 62
     7
176
     0
 62
   257
176
     0
 90
        1
176
     0
 90
        1
176
     0
 40
1.0
176
     0
 90
       10
176
     2
 62
     7
176
     0
 40
1.0
176
     0
 90
        1
176
     0
 90
        6
176
     0
 90
        2
176
     0
 62
     7
176
     0
 90
        5
176
     0
 90
        0
176
     0
 90
        0
176
     0
290
     0
176
     0
 90
        1
176
     0
 40
0.0
176
     0
 90
        0
176
     0
290
     0
176
     0
290
     1
176
     0
290
     1
176
     0
290
     0
176
     0
290
     0
176
     0
290
     0
176
     0
290
     0
176
     0
290
     0
176
     0
290
     0
176
     0
 90
       50
176
     0
 40
0.0
176
     0
 40
1.0
176
     0
 90
        0
176
     0
 62
    18
420
        0
176
     0
 90
       50
176
     0
 90
        3
176
     0
 62
     5
420
      255
176
     0
290
     0
176
     0
 90
       50
176
     0
 90
       50
176
     0
 90
       50
176
     0
290
     0
176
     0
 90
       50
176
     0
 62
   256
176
     0
 40
1.0
176
     0
 90
        2
176
     0
  1
strokes_ogs.tif
176
     0
290
     0
176
     0
 40
1.0
176
     0
 40
1.0
176
     0
  0
VISUALSTYLE
  5
18C
102
{ACAD_REACTORS
330
17E
102
}
330
17E
100
AcDbVisualStyle
  2
Linepattern
 70
    14
177
     3
291
     1
 70
    58
 90
        2
176
     1
 90
        2
176
     1
 90
        0
176
     1
 90
        0
176
     1
 40
0.6
176
     1
 40
30.0
176
     1
 62
     7
420
 16777215
176
     1
 90
        1
176
     1
 90
        4
176
     1
 62
     7
176
     1
 62
   257
176
     1
 90
        7
176
     1
 90
        7
176
     1
 40
1.0
176
     1
 90
        8
176
     1
 62
     7
176
     1
 40
1.0
176
     1
 90
        1
176
     1
 90
        6
176
     1
 90
        2
176
     1
 62
     7
176
     1
 90
        5
176
     1
 90
        0
176
     1
 90
        0
176
     1
290
     0
176
     1
 90
        1
176
     1
 40
0.0
176
     1
 90
        0
176
     1
290
     0
176
     1
290
     1
176
     1
290
     1
176
     1
290
     0
176
     1
290
     0
176
     1
290
     0
176
     1
290
     0
176
     1
290
     0
176
     1
290
     0
176
     1
 90
       50
176
     1
 40
0.0
176
     1
 40
1.0
176
     1
 90
        0
176
     1
 62
    18
420
        0
176
     1
 90
       50
176
     1
 90
        3
176
     1
 62
     5
420
      255
176
     1
290
     0
176
     1
 90
       50
176
     1
 90
       50
176
     1
 90
       50
176
     1
290
     0
176
     1
 90
       50
176
     1
 62
   256
176
     0
 40
1.0
176
     0
 90
        2
176
     1
  1
strokes_ogs.tif
176
     1
290
     0
176
     1
 40
1.0
176
     1
 40
1.0
176
     1
  0
VISUALSTYLE
  5
195
102
{ACAD_REACTORS
330
17E
102
}
330
17E
100
AcDbVisualStyle
  2
OverhangOff
 70
    21
177
     3
291
     1
 70
    58
 90
        2
176
     0
 90
        2
176
     0
 90
        0
176
     0
 90
        0
176
     0
 40
0.6
176
     0
 40
30.0
176
     0
 62
     7
420
 16777215
176
     0
 90
        1
176
     0
 90
        4
176
     0
 62
     7
176
     0
 62
   257
176
     0
 90
        1
176
     0
 90
        1
176
     0
 40
1.0
176
     0
 90
        9
176
     2
 62
     7
176
     0
 40
1.0
176
     0
 90
        1
176
     0
 90
        6
176
     0
 90
        2
176
     0
 62
     7
176
     0
 90
        5
176
     0
 90
        0
176
     0
 90
        0
176
     0
290
     0
176
     0
 90
        1
176
     0
 40
0.0
176
     0
 90
        0
176
     0
290
     0
176
     0
290
     1
176
     0
290
     1
176
     0
290
     0
176
     0
290
     0
176
     0
290
     0
176
     0
290
     0
176
     0
290
     0
176
     0
290
     0
176
     0
 90
       50
176
     0
 40
0.0
176
     0
 40
1.0
176
     0
 90
        0
176
     0
 62
    18
420
        0
176
     0
 90
       50
176
     0
 90
        3
176
     0
 62
     5
420
      255
176
     0
290
     0
176
     0
 90
       50
176
     0
 90
       50
176
     0
 90
       50
176
     0
290
     0
176
     0
 90
       50
176
     0
 62
   256
176
     0
 40
1.0
176
     0
 90
        2
176
     0
  1
strokes_ogs.tif
176
     0
290
     0
176
     0
 40
1.0
176
     0
 40
1.0
176
     0
  0
VISUALSTYLE
  5
188
102
{ACAD_REACTORS
330
17E
102
}
330
17E
100
AcDbVisualStyle
  2
Realistic
 70
     8
177
     3
291
     0
 70
    58
 90
        2
176
     1
 90
        3
176
     1
 90
        0
176
     1
 90
        2
176
     1
 40
0.6
176
     1
 40
30.0
176
     1
 62
     7
420
 16777215
176
     1
 90
        0
176
     1
 90
        0
176
     1
 62
     7
176
     1
 62
   257
176
     1
 90
        1
176
     1
 90
        1
176
     1
 40
1.0
176
     1
 90
        8
176
     1
 62
   257
176
     1
 40
1.0
176
     1
 90
        1
176
     1
 90
        6
176
     1
 90
        2
176
     1
 62
     7
176
     1
 90
        3
176
     1
 90
        0
176
     1
 90
        0
176
     1
290
     0
176
     1
 90
       13
176
     1
 40
0.0
176
     1
 90
        0
176
     1
290
     0
176
     1
290
     1
176
     1
290
     1
176
     1
290
     0
176
     1
290
     0
176
     1
290
     0
176
     1
290
     0
176
     1
290
     0
176
     1
290
     0
176
     1
 90
       50
176
     1
 40
0.0
176
     1
 40
1.0
176
     1
 90
        0
176
     1
 62
    18
420
        0
176
     1
 90
       50
176
     1
 90
        3
176
     1
 62
     5
420
      255
176
     1
290
     0
176
     1
 90
       50
176
     1
 90
       50
176
     1
 90
       50
176
     1
290
     0
176
     1
 90
       50
176
     1
 62
   256
176
     0
 40
1.0
176
     0
 90
        2
176
     1
  1
strokes_ogs.tif
176
     1
290
     0
176
     1
 40
1.0
176
     1
 40
1.0
176
     1
  0
VISUALSTYLE
  5
193
102
{ACAD_REACTORS
330
17E
102
}
330
17E
100
AcDbVisualStyle
  2
Shaded
 70
    27
177
     3
291
     0
 70
    58
 90
        2
176
     1
 90
        2
176
     1
 90
        1
176
     1
 90
        2
176
     1
 40
0.6
176
     1
 40
30.0
176
     1
 62
     7
420
 16777215
176
     1
 90
        0
176
     1
 90
        4
176
     1
 62
     7
176
     1
 62
   257
176
     1
 90
        1
176
     1
 90
        1
176
     1
 40
1.0
176
     1
 90
        8
176
     1
 62
   257
176
     1
 40
1.0
176
     1
 90
        1
176
     1
 90
        6
176
     1
 90
        2
176
     1
 62
     8
420
  7895160
176
     1
 90
        3
176
     1
 90
        0
176
     1
 90
        0
176
     1
290
     0
176
     1
 90
        5
176
     1
 40
0.0
176
     1
 90
        0
176
     1
290
     0
176
     1
290
     1
176
     1
290
     1
176
     1
290
     0
176
     1
290
     0
176
     1
290
     0
176
     1
290
     0
176
     1
290
     0
176
     1
290
     0
176
     1
 90
       50
176
     1
 40
0.0
176
     1
 40
1.0
176
     1
 90
        0
176
     1
 62
    18
420
        0
176
     1
 90
       50
176
     1
 90
        3
176
     1
 62
     5
420
      255
176
     1
290
     0
176
     1
 90
       50
176
     1
 90
       50
176
     1
 90
       50
176
     1
290
     0
176
     1
 90
       50
176
     1
 62
   256
176
     0
 40
1.0
176
     0
 90
        2
176
     1
  1
strokes_ogs.tif
176
     1
290
     0
176
     1
 40
1.0
176
     1
 40
1.0
176
     1
  0
VISUALSTYLE
  5
192
102
{ACAD_REACTORS
330
17E
102
}
330
17E
100
AcDbVisualStyle
  2
Shaded with edges
 70
    26
177
     3
291
     0
 70
    58
 90
        2
176
     1
 90
        2
176
     1
 90
        1
176
     1
 90
        2
176
     1
 40
0.6
176
     1
 40
30.0
176
     1
 62
     7
420
 16777215
176
     1
 90
        1
176
     1
 90
       10
176
     1
 62
     7
176
     1
 62
   257
176
     1
 90
        2
176
     1
 90
        1
176
     1
 40
1.0
176
     1
 90
        8
176
     1
 62
   257
176
     1
 40
1.0
176
     1
 90
        1
176
     1
 90
        6
176
     1
 90
        2
176
     1
 62
     7
176
     1
 90
        3
176
     1
 90
        0
176
     1
 90
        0
176
     1
290
     0
176
     1
 90
        5
176
     1
 40
0.0
176
     1
 90
        0
176
     1
290
     0
176
     1
290
     1
176
     1
290
     1
176
     1
290
     0
176
     1
290
     0
176
     1
290
     0
176
     1
290
     0
176
     1
290
     0
176
     1
290
     0
176
     1
 90
       50
176
     1
 40
0.0
176
     1
 40
1.0
176
     1
 90
        0
176
     1
 62
    18
420
        0
176
     1
 90
       50
176
     1
 90
        3
176
     1
 62
     5
420
      255
176
     1
290
     0
176
     1
 90
       50
176
     1
 90
       50
176
     1
 90
       50
176
     1
290
     0
176
     1
 90
       50
176
     1
 62
   256
176
     0
 40
1.0
176
     0
 90
        2
176
     1
  1
strokes_ogs.tif
176
     1
290
     0
176
     1
 40
1.0
176
     1
 40
1.0
176
     1
  0
VISUALSTYLE
  5
18F
102
{ACAD_REACTORS
330
17E
102
}
330
17E
100
AcDbVisualStyle
  2
Shades of Gray
 70
    23
177
     3
291
     0
 70
    58
 90
        2
176
     1
 90
        2
176
     1
 90
        3
176
     1
 90
        0
176
     1
 40
0.6
176
     1
 40
30.0
176
     1
 62
     7
420
 16777215
176
     1
 90
        2
176
     1
 90
        2
176
     1
 62
     7
176
     1
 62
     7
176
     1
 90
        1
176
     1
 90
        1
176
     1
 40
40.0
176
     1
 90
        8
176
     1
 62
     7
176
     1
 40
1.0
176
     1
 90
        1
176
     1
 90
        6
176
     1
 90
        2
176
     1
 62
     7
176
     1
 90
        3
176
     1
 90
        0
176
     1
 90
        0
176
     1
290
     0
176
     1
 90
        1
176
     1
 40
0.0
176
     1
 90
        0
176
     1
290
     0
176
     1
290
     1
176
     1
290
     1
176
     1
290
     0
176
     1
290
     0
176
     1
290
     0
176
     1
290
     0
176
     1
290
     0
176
     1
290
     0
176
     1
 90
       50
176
     1
 40
0.0
176
     1
 40
1.0
176
     1
 90
        0
176
     1
 62
    18
420
        0
176
     1
 90
       50
176
     1
 90
        3
176
     1
 62
     5
420
      255
176
     1
290
     0
176
     1
 90
       50
176
     1
 90
       50
176
     1
 90
       50
176
     1
290
     0
176
     1
 90
       50
176
     1
 62
   256
176
     0
 40
1.0
176
     0
 90
        2
176
     1
  1
strokes_ogs.tif
176
     1
290
     0
176
     1
 40
1.0
176
     1
 40
1.0
176
     1
  0
VISUALSTYLE
  5
190
102
{ACAD_REACTORS
330
17E
102
}
330
17E
100
AcDbVisualStyle
  2
Sketchy
 70
    24
177
     3
291
     0
 70
    58
 90
        1
176
     1
 90
        2
176
     1
 90
        2
176
     1
 90
        0
176
     1
 40
0.6
176
     1
 40
30.0
176
     1
 62
     7
420
 16777215
176
     1
 90
        2
176
     1
 90
        2
176
     1
 62
     7
176
     1
 62
     7
176
     1
 90
        1
176
     1
 90
        1
176
     1
 40
40.0
176
     1
 90
       11
176
     1
 62
     7
176
     1
 40
1.0
176
     1
 90
        1
176
     1
 90
        6
176
     1
 90
        2
176
     1
 62
     7
176
     1
 90
        6
176
     1
 90
        0
176
     1
 90
        0
176
     1
290
     0
176
     1
 90
        1
176
     1
 40
0.0
176
     1
 90
        0
176
     1
290
     0
176
     1
290
     1
176
     1
290
     1
176
     1
290
     0
176
     1
290
     0
176
     1
290
     0
176
     1
290
     0
176
     1
290
     0
176
     1
290
     0
176
     1
 90
       50
176
     1
 40
0.0
176
     1
 40
1.0
176
     1
 90
        0
176
     1
 62
    18
420
        0
176
     1
 90
       50
176
     1
 90
        3
176
     1
 62
     5
420
      255
176
     1
290
     0
176
     1
 90
       50
176
     1
 90
       50
176
     1
 90
       50
176
     1
290
     0
176
     1
 90
       50
176
     1
 62
   256
176
     0
 40
1.0
176
     0
 90
        2
176
     1
  1
strokes_ogs.tif
176
     1
290
     0
176
     1
 40
1.0
176
     1
 40
1.0
176
     1
  0
VISUALSTYLE
  5
18B
102
{ACAD_REACTORS
330
17E
102
}
330
17E
100
AcDbVisualStyle
  2
Thicken
 70
    13
177
     3
291
     1
 70
    58
 90
        2
176
     1
 90
        2
176
     1
 90
        0
176
     1
 90
        0
176
     1
 40
0.6
176
     1
 40
30.0
176
     1
 62
     7
420
 16777215
176
     1
 90
        1
176
     1
 90
        4
176
     1
 62
     7
176
     1
 62
   257
176
     1
 90
        1
176
     1
 90
        1
176
     1
 40
1.0
176
     1
 90
       12
176
     1
 62
     7
176
     1
 40
1.0
176
     1
 90
        1
176
     1
 90
        6
176
     1
 90
        2
176
     1
 62
     7
176
     1
 90
        5
176
     1
 90
        0
176
     1
 90
        0
176
     1
290
     0
176
     1
 90
        1
176
     1
 40
0.0
176
     1
 90
        0
176
     1
290
     0
176
     1
290
     1
176
     1
290
     1
176
     1
290
     0
176
     1
290
     0
176
     1
290
     0
176
     1
290
     0
176
     1
290
     0
176
     1
290
     0
176
     1
 90
       50
176
     1
 40
0.0
176
     1
 40
1.0
176
     1
 90
        0
176
     1
 62
    18
420
        0
176
     1
 90
       50
176
     1
 90
        3
176
     1
 62
     5
420
      255
176
     1
290
     0
176
     1
 90
       50
176
     1
 90
       50
176
     1
 90
       50
176
     1
290
     0
176
     1
 90
       50
176
     1
 62
   256
176
     0
 40
1.0
176
     0
 90
        2
176
     1
  1
strokes_ogs.tif
176
     1
290
     0
176
     1
 40
1.0
176
     1
 40
1.0
176
     1
  0
VISUALSTYLE
  5
185
102
{ACAD_REACTORS
330
17E
102
}
330
17E
100
AcDbVisualStyle
  2
Wireframe
 70
     5
177
     3
291
     0
 70
    58
 90
        0
176
     1
 90
        2
176
     1
 90
        0
176
     1
 90
        0
176
     1
 40
0.6
176
     1
 40
30.0
176
     1
 62
     7
420
 16777215
176
     1
 90
        1
176
     1
 90
        4
176
     1
 62
     7
176
     1
 62
   257
176
     1
 90
        1
176
     1
 90
        1
176
     1
 40
1.0
176
     1
 90
        0
176
     1
 62
   257
176
     1
 40
1.0
176
     1
 90
        1
176
     1
 90
        6
176
     1
 90
        2
176
     1
 62
     7
176
     1
 90
        3
176
     1
 90
        0
176
     1
 90
        0
176
     1
290
     0
176
     1
 90
        1
176
     1
 40
0.0
176
     1
 90
        0
176
     1
290
     0
176
     1
290
     1
176
     1
290
     1
176
     1
290
     0
176
     1
290
     0
176
     1
290
     0
176
     1
290
     0
176
     1
290
     0
176
     1
290
     0
176
     1
 90
       50
176
     1
 40
0.0
176
     1
 40
1.0
176
     1
 90
        0
176
     1
 62
    18
420
        0
176
     1
 90
       50
176
     1
 90
        3
176
     1
 62
     5
420
      255
176
     1
290
     0
176
     1
 90
       50
176
     1
 90
       50
176
     1
 90
       50
176
     1
290
     0
176
     1
 90
       50
176
     1
 62
   256
176
     0
 40
1.0
176
     0
 90
        2
176
     1
  1
strokes_ogs.tif
176
     1
290
     0
176
     1
 40
1.0
176
     1
 40
1.0
176
     1
  0
VISUALSTYLE
  5
191
102
{ACAD_REACTORS
330
17E
102
}
330
17E
100
AcDbVisualStyle
  2
X-Ray
 70
    25
177
     3
291
     0
 70
    58
 90
        2
176
     1
 90
        2
176
     1
 90
        1
176
     1
 90
        1
176
     1
 40
0.5
176
     1
 40
30.0
176
     1
 62
     7
420
 16777215
176
     1
 90
        1
176
     1
 90
        0
176
     1
 62
     7
176
     1
 62
   257
176
     1
 90
        1
176
     1
 90
        1
176
     1
 40
1.0
176
     1
 90
        8
176
     1
 62
     7
176
     1
 40
1.0
176
     1
 90
        1
176
     1
 90
        6
176
     1
 90
        2
176
     1
 62
     7
176
     1
 90
        3
176
     1
 90
        0
176
     1
 90
        0
176
     1
290
     0
176
     1
 90
       13
176
     1
 40
0.0
176
     1
 90
        0
176
     1
290
     0
176
     1
290
     1
176
     1
290
     1
176
     1
290
     0
176
     1
290
     0
176
     1
290
     0
176
     1
290
     0
176
     1
290
     0
176
     1
290
     0
176
     1
 90
       50
176
     1
 40
0.0
176
     1
 40
1.0
176
     1
 90
        0
176
     1
 62
    18
420
        0
176
     1
 90
       50
176
     1
 90
        3
176
     1
 62
     5
420
      255
176
     1
290
     0
176
     1
 90
       50
176
     1
 90
       50
176
     1
 90
       50
176
     1
290
     0
176
     1
 90
       50
176
     1
 62
   256
176
     0
 40
1.0
176
     0
 90
        2
176
     1
  1
strokes_ogs.tif
176
     1
290
     0
176
     1
 40
1.0
176
     1
 40
1.0
176
     1
  0
DICTIONARYVAR
  5
1D1
102
{ACAD_REACTORS
330
1CB
102
}
330
1CB
100
DictionaryVariables
280
     0
  1
1:1
  0
DICTIONARYVAR
  5
1CD
102
{ACAD_REACTORS
330
1CB
102
}
330
1CB
100
DictionaryVariables
280
     0
  1
STANDARD
  0
DICTIONARYVAR
  5
1CC
102
{ACAD_REACTORS
330
1CB
102
}
330
1CB
100
DictionaryVariables
280
     0
  1
STANDARD
  0
DICTIONARYVAR
  5
1CE
102
{ACAD_REACTORS
330
1CB
102
}
330
1CB
100
DictionaryVariables
280
     0
  1
Imperial24
  0
DICTIONARYVAR
  5
1CF
102
{ACAD_REACTORS
330
1CB
102
}
330
1CB
100
DictionaryVariables
280
     0
  1
Imperial24
  0
DICTIONARYVAR
  5
1D3
102
{ACAD_REACTORS
330
1CB
102
}
330
1CB
100
DictionaryVariables
280
     0
  1
1
  0
DICTIONARYVAR
  5
1D4
102
{ACAD_REACTORS
330
1CB
102
}
330
1CB
100
DictionaryVariables
280
     0
  1
15
  0
DICTIONARYVAR
  5
1D2
102
{ACAD_REACTORS
330
1CB
102
}
330
1CB
100
DictionaryVariables
280
     0
  1
0
  0
DICTIONARYVAR
  5
1D0
102
{ACAD_REACTORS
330
1CB
102
}
330
1CB
100
DictionaryVariables
280
     0
  1
0
  0
DICTIONARY
  5
214
330
1B5
100
AcDbDictionary
280
     1
281
     1
  0
DICTIONARY
  5
16F
330
16E
100
AcDbDictionary
280
     1
281
     1
  3
BUMPTILE
360
171
  3
DIFFUSETILE
360
170
  3
OPACITYTILE
360
174
  3
REFLECTIONTILE
360
173
  3
REFRACTIONTILE
360
175
  3
SPECULARTILE
360
172
  0
DICTIONARY
  5
167
330
166
100
AcDbDictionary
280
     1
281
     1
  3
BUMPTILE
360
169
  3
DIFFUSETILE
360
168
  3
OPACITYTILE
360
16C
  3
REFLECTIONTILE
360
16B
  3
REFRACTIONTILE
360
16D
  3
SPECULARTILE
360
16A
  0
DICTIONARY
  5
177
330
176
100
AcDbDictionary
280
     1
281
     1
  3
BUMPTILE
360
179
  3
DIFFUSETILE
360
178
  3
OPACITYTILE
360
17C
  3
REFLECTIONTILE
360
17B
  3
REFRACTIONTILE
360
17D
  3
SPECULARTILE
360
17A
  0
DICTIONARY
  5
76B
330
199
100
AcDbDictionary
280
     1
281
     1
  3
ACAD_ROUNDTRIP_2008_TABLESTYLE_CELLSTYLEMAP
360
76C
  0
XRECORD
  5
171
102
{ACAD_REACTORS
330
16F
102
}
330
16F
100
AcDbXrecord
280
     1
270
     1
271
     1
  0
XRECORD
  5
170
102
{ACAD_REACTORS
330
16F
102
}
330
16F
100
AcDbXrecord
280
     1
270
     1
271
     1
  0
XRECORD
  5
174
102
{ACAD_REACTORS
330
16F
102
}
330
16F
100
AcDbXrecord
280
     1
270
     1
271
     1
  0
XRECORD
  5
173
102
{ACAD_REACTORS
330
16F
102
}
330
16F
100
AcDbXrecord
280
     1
270
     1
271
     1
  0
XRECORD
  5
175
102
{ACAD_REACTORS
330
16F
102
}
330
16F
100
AcDbXrecord
280
     1
270
     1
271
     1
  0
XRECORD
  5
172
102
{ACAD_REACTORS
330
16F
102
}
330
16F
100
AcDbXrecord
280
     1
270
     1
271
     1
  0
XRECORD
  5
169
102
{ACAD_REACTORS
330
167
102
}
330
167
100
AcDbXrecord
280
     1
270
     1
271
     1
  0
XRECORD
  5
168
102
{ACAD_REACTORS
330
167
102
}
330
167
100
AcDbXrecord
280
     1
270
     1
271
     1
  0
XRECORD
  5
16C
102
{ACAD_REACTORS
330
167
102
}
330
167
100
AcDbXrecord
280
     1
270
     1
271
     1
  0
XRECORD
  5
16B
102
{ACAD_REACTORS
330
167
102
}
330
167
100
AcDbXrecord
280
     1
270
     1
271
     1
  0
XRECORD
  5
16D
102
{ACAD_REACTORS
330
167
102
}
330
167
100
AcDbXrecord
280
     1
270
     1
271
     1
  0
XRECORD
  5
16A
102
{ACAD_REACTORS
330
167
102
}
330
167
100
AcDbXrecord
280
     1
270
     1
271
     1
  0
XRECORD
  5
179
102
{ACAD_REACTORS
330
177
102
}
330
177
100
AcDbXrecord
280
     1
270
     1
271
     1
  0
XRECORD
  5
178
102
{ACAD_REACTORS
330
177
102
}
330
177
100
AcDbXrecord
280
     1
270
     1
271
     1
  0
XRECORD
  5
17C
102
{ACAD_REACTORS
330
177
102
}
330
177
100
AcDbXrecord
280
     1
270
     1
271
     1
  0
XRECORD
  5
17B
102
{ACAD_REACTORS
330
177
102
}
330
177
100
AcDbXrecord
280
     1
270
     1
271
     1
  0
XRECORD
  5
17D
102
{ACAD_REACTORS
330
177
102
}
330
177
100
AcDbXrecord
280
     1
270
     1
271
     1
  0
XRECORD
  5
17A
102
{ACAD_REACTORS
330
177
102
}
330
177
100
AcDbXrecord
280
     1
270
     1
271
     1
  0
CELLSTYLEMAP
  5
76C
102
{ACAD_REACTORS
330
76B
102
}
330
76B
100
AcDbCellStyleMap
 90
        3
300
CELLSTYLE
  1
TABLEFORMAT_BEGIN
 90
        5
170
     1
 91
        0
 92
    32768
 62
   257
 93
        1
300
CONTENTFORMAT
  1
CONTENTFORMAT_BEGIN
 90
        0
 91
        0
 92
      512
 93
        0
300

 40
0.0
140
1.0
 94
        5
 62
     0
340
17
144
0.25
309
CONTENTFORMAT_END
171
     0
 94
        0
309
TABLEFORMAT_END
  1
CELLSTYLE_BEGIN
 90
        1
 91
        1
300
_TITLE
309
CELLSTYLE_END
300
CELLSTYLE
  1
TABLEFORMAT_BEGIN
 90
        5
170
     1
 91
        0
 92
        0
 62
   257
 93
        1
300
CONTENTFORMAT
  1
CONTENTFORMAT_BEGIN
 90
        0
 91
        0
 92
      512
 93
        0
300

 40
0.0
140
1.0
 94
        5
 62
     0
340
17
144
0.18
309
CONTENTFORMAT_END
171
     0
 94
        0
309
TABLEFORMAT_END
  1
CELLSTYLE_BEGIN
 90
        2
 91
        1
300
_HEADER
309
CELLSTYLE_END
300
CELLSTYLE
  1
TABLEFORMAT_BEGIN
 90
        5
170
     1
 91
        0
 92
        0
 62
   257
 93
        1
300
CONTENTFORMAT
  1
CONTENTFORMAT_BEGIN
 90
        0
 91
        0
 92
      512
 93
        0
300

 40
0.0
140
1.0
 94
        2
 62
     0
340
17
144
0.18
309
CONTENTFORMAT_END
171
     0
 94
        0
309
TABLEFORMAT_END
  1
CELLSTYLE_BEGIN
 90
        3
 91
        2
300
_DATA
309
CELLSTYLE_END
  0
ENDSEC
  0
SECTION
  2
ACDSDATA
 70
     2
 71
     2
  0
ACDSSCHEMA
 90
        0
  1
AcDb_Thumbnail_Schema
  2
AcDbDs::ID
280
    10
 91
        8
  2
Thumbnail_Data
280
    15
 91
        0
101
ACDSRECORD
 95
        0
 90
        1
  2
AcDbDs::TreatedAsObjectData
280
     1
291
     1
101
ACDSRECORD
 95
        0
 90
        2
  2
AcDbDs::Legacy
280
     1
291
     1
101
ACDSRECORD
  1
AcDbDs::ID
 90
        3
  2
AcDs:Indexable
280
     1
291
     1
101
ACDSRECORD
  1
AcDbDs::ID
 90
        4
  2
AcDbDs::HandleAttribute
280
     7
282
     1
  0
ACDSSCHEMA
 90
        1
  1
AcDbDs::TreatedAsObjectDataSchema
  2
AcDbDs::TreatedAsObjectData
280
     1
 91
        0
  0
ACDSSCHEMA
 90
        2
  1
AcDbDs::LegacySchema
  2
AcDbDs::Legacy
280
     1
 91
        0
  0
ACDSSCHEMA
 90
        3
  1
AcDbDs::IndexedPropertySchema
  2
AcDs:Indexable
280
     1
 91
        0
  0
ACDSSCHEMA
 90
        4
  1
AcDbDs::HandleAttributeSchema
  2
AcDbDs::HandleAttribute
280
     7
 91
        1
284
     1
  0
ACDSRECORD
 90
        0
  2
AcDbDs::ID
280
    10
320
1B5
  2
Thumbnail_Data
280
    15
 94
     1275
310
89504E470D0A1A0A0000000D49484452000001000000007D08030000007A674DFF00000300504C5445212830000000C8C8C80000000000000000000000000000000000000000000000000000330000660000990000CC0000FF0033000033330033660033990033CC0033FF0066000066330066660066990066CC0066FF0099
310
000099330099660099990099CC0099FF00CC0000CC3300CC6600CC9900CCCC00CCFF00FF0000FF3300FF6600FF9900FFCC00FFFF3300003300333300663300993300CC3300FF3333003333333333663333993333CC3333FF3366003366333366663366993366CC3366FF3399003399333399663399993399CC3399FF33CC00
310
33CC3333CC6633CC9933CCCC33CCFF33FF0033FF3333FF6633FF9933FFCC33FFFF6600006600336600666600996600CC6600FF6633006633336633666633996633CC6633FF6666006666336666666666996666CC6666FF6699006699336699666699996699CC6699FF66CC0066CC3366CC6666CC9966CCCC66CCFF66FF0066
310
FF3366FF6666FF9966FFCC66FFFF9900009900339900669900999900CC9900FF9933009933339933669933999933CC9933FF9966009966339966669966999966CC9966FF9999009999339999669999999999CC9999FF99CC0099CC3399CC6699CC9999CCCC99CCFF99FF0099FF3399FF6699FF9999FFCC99FFFFCC0000CC00
310
33CC0066CC0099CC00CCCC00FFCC3300CC3333CC3366CC3399CC33CCCC33FFCC6600CC6633CC6666CC6699CC66CCCC66FFCC9900CC9933CC9966CC9999CC99CCCC99FFCCCC00CCCC33CCCC66CCCC99CCCCCCCCCCFFCCFF00CCFF33CCFF66CCFF99CCFFCCCCFFFFFF0000FF0033FF0066FF0099FF00CCFF00FFFF3300FF3333
310
FF3366FF3399FF33CCFF33FFFF6600FF6633FF6666FF6699FF66CCFF66FFFF9900FF9933FF9966FF9999FF99CCFF99FFFFCC00FFCC33FFCC66FFCC99FFCCCCFFCCFFFFFF00FFFF33FFFF66FFFF99FFFFCCFFFFFF0000000D0D0D1A1A1A2828283535354343435050505D5D5D6B6B6B787878868686939393A1A1A1AEAEAEBB
310
BBBBC9C9C9D6D6D6E4E4E4F1F1F1FFFFFF000000000000000000000000000000000000000000000000000000000000B21171F6000001474944415478DAEDDA4B9283201000502EC4FD77DC2AFB09208AD690CC6EAA9AF72A465137DDF26953490900000000000000000000000000000000F8A694F3F0F5F6385FBFDF27A79B
310
E2C57FA90998DBFDEA71326C023E5E2A7FB94F022227200F25F6F8EF41D67367C4798704A416620F3AF52D9DCD7AB9ED9B1C7501AC51D6E8F2BC6F87B9F4FE103701BD07CC519F5BFB947940C44DC015721AD3C0D1EA4320E6B3BFCD012BE113D0EADE7C3CFADF769B24606D8B2190D773C04840EC4930AF57811C7D152825
310
3DD6FF3C9704E3E9072F84D2AD124C732598B6A8036ED5FF8756CC044C3F7D4C01C69EF9E131043E1642D113F0B5128CDE018E5570140157DC9BF580CD13901EEF3E7323B6F13A3C6A9E6BEBB58004EC3304364D40297AC0F49BCF96091895E0E23550AD0C00FB78B5ADFF59EEF697B9E8EF442B9B3DFB6B07000000F06F7E
310
0012D9E7E6D1F70C950000000049454E44AE426082D5A4F6B2F8E8BB0FB6EA05D90500000000000000E0B7FC0181C30D8ED9C340B40000000049454E44AE426082654CEF599BCE4C6E8F27A71A1AAE5B0F9A5B0100000000000000000000000000000000000000000000000000F87FBFB1FFE786C44F12700000000049454E
310
44AE426082
  0
ACDSRECORD
 90
        0
  2
AcDbDs::ID
280
    10
320
1B6
  2
Thumbnail_Data
280
    15
 94
     1866
310
89504E470D0A1A0A0000000D4948445200000100000000B5080300000087DCD12600000300504C5445FFFFFF000000C8C8C80000000000000000000000000000000000000000000000000000330000660000990000CC0000FF0033000033330033660033990033CC0033FF0066000066330066660066990066CC0066FF0099
310
000099330099660099990099CC0099FF00CC0000CC3300CC6600CC9900CCCC00CCFF00FF0000FF3300FF6600FF9900FFCC00FFFF3300003300333300663300993300CC3300FF3333003333333333663333993333CC3333FF3366003366333366663366993366CC3366FF3399003399333399663399993399CC3399FF33CC00
310
33CC3333CC6633CC9933CCCC33CCFF33FF0033FF3333FF6633FF9933FFCC33FFFF6600006600336600666600996600CC6600FF6633006633336633666633996633CC6633FF6666006666336666666666996666CC6666FF6699006699336699666699996699CC6699FF66CC0066CC3366CC6666CC9966CCCC66CCFF66FF0066
310
FF3366FF6666FF9966FFCC66FFFF9900009900339900669900999900CC9900FF9933009933339933669933999933CC9933FF9966009966339966669966999966CC9966FF9999009999339999669999999999CC9999FF99CC0099CC3399CC6699CC9999CCCC99CCFF99FF0099FF3399FF6699FF9999FFCC99FFFFCC0000CC00
310
33CC0066CC0099CC00CCCC00FFCC3300CC3333CC3366CC3399CC33CCCC33FFCC6600CC6633CC6666CC6699CC66CCCC66FFCC9900CC9933CC9966CC9999CC99CCCC99FFCCCC00CCCC33CCCC66CCCC99CCCCCCCCCCFFCCFF00CCFF33CCFF66CCFF99CCFFCCCCFFFFFF0000FF0033FF0066FF0099FF00CCFF00FFFF3300FF3333
310
FF3366FF3399FF33CCFF33FFFF6600FF6633FF6666FF6699FF66CCFF66FFFF9900FF9933FF9966FF9999FF99CCFF99FFFFCC00FFCC33FFCC66FFCC99FFCCCCFFCCFFFFFF00FFFF33FFFF66FFFF99FFFFCCFFFFFF0000000D0D0D1A1A1A2828283535354343435050505D5D5D6B6B6B787878868686939393A1A1A1AEAEAEBB
310
BBBBC9C9C9D6D6D6E4E4E4F1F1F1FFFFFF000000000000000000000000000000000000000000000000000000000000B0E2D235000003764944415478DAED9C5B76AB300C453521CDFFCF836124374D20B665D974416E83CC3EED4A21112EDAC80F64071184104208218410420821841042E8299D4267004C71150100000000
310
000000000000000000000000000000000000000000000000000000000000000000000000F8EF00D2439D8F16597ED43FD0DDFF396AA7E0EB004843AD0086366D410FEF97D6E0AA0064748ACBF367844F5251D07A508E9954185C16C0CB8F6355602B60FD9BAB40FE3C04804F14908EFF07000000000000407C00BD65A05704
310
D01DD57517B0F657B8E608D0381190ECA61A275FBBCDFFF10CD2DB428F9EE23722A006A0A62C6D0AD7AE411AC5C8EF9642FF39806400BCFD7F9FB14BC4372800F867744900B912A4EDCCB58A04AD7C1A19D82A100E8036315E86FBC343D5A141530542B401C56679DDDA57D31E54AF752F10AB11B4001C2FEBA23D03B1BD80
310
DFF04500505F6D15BF1368BB0BED46C0B57B010B40A5EF9FB751F50E0E80CB77830680EDDE07E3016D43C303F087E3F90F006822BD7C43BDAA50C5FADC00E41600465FE853197F37313E00295BA9B60DD0FAAEC831D08000965464BA6B00DB55EF02680C0202A853FD0680EC0168804C06E00E11401B5002D0B3BDC0041170
310
6E1C3037003D0620D2BD809CBD1750F7763814807377831A3C212267F3015300389311D2E03941D9C909D6D9EE3627D83482D1B2C24EA6578D93392BDEB175484502304AFBDB58EF1948DC99A1EA621E991992908D60F24A692E5A3337383010930B8F330EE816B39BDCB7AE1D7E3654ECF5011F108BA50100000000000000
310
F8D638E08BCFC3BCC8EDB0FAC3783FE32B76F41B13C0AFF3E27346407537F89AEDB20569FED5BC23D21C2731011495E0EE00B400A0ADF7051FAD93819101D453633B00F4EE00EE1001EF59D01A4071F1D50510B81BB411200E003B046800C84455A0F16F77333480728D5006E00E6FD499FAC92B07C2029072894CBDF85BEA
310
9D0A801D05440560D608DD0F805926774300EE02090000000000B80B80361F0080BB01481FAB029FC8CB7F39290A803B0290DB478037335401C86FEA9E41400017130000000000000000000000000000000000000000000000AE0360A9371691E271F3CF39F6659900405E30B16C0F94773E587D2F003C77A70090DD7E3BB5
310
EEBEB636007977B31D3C7C3F66042C4B19F9D93BE3FBFBBD3900D00802000071014C21410821841042082184104208218456FD03E9E0F0F70024A9FD0000000049454E44AE42608219202ECE791B5FBEDF670B08216DF9B17659DDE328F511005C040100A05F8047A45F000C9B000000000000000000008644080000000000
310
000030BFDACF3B862CD55674BD010321000000E0FDF869E4F40FFFCCFF83431CB7980000000049454E44AE4260827D9472C3E5E270FB196517C08610010830018C9D5E7FB85EDC5825C792380000000049454E44AE426082
  0
ENDSEC
  0
EOF
